<?xml version="1.0" standalone="no"?>
<!DOCTYPE svg PUBLIC "-//W3C//DTD SVG 1.1//EN" "http://www.w3.org/Graphics/SVG/1.1/DTD/svg11.dtd" >
<svg xmlns="http://www.w3.org/2000/svg">
<metadata>Generated by IcoMoon</metadata>
<defs>
<font id="icomoon" horiz-adv-x="1024">
<font-face units-per-em="1024" ascent="960" descent="-64" />
<missing-glyph horiz-adv-x="1024" />
<glyph unicode="&#x20;" d="" horiz-adv-x="512" />
<glyph unicode="&#xe600;" d="M438.59 610.618l72.596-157.414 107.272-48.528-386.934-203.566 158.542 141.326v402.898l-163.274 50.016v-599.232l162.274-113.752 408.142 243.102v175.248z" />
<glyph unicode="&#xe601;" d="M491.604 816.774c-27.6-9-45.8-30.2-50.4-58.6-1.6-9.6 0.2-29.8 10-118.6 6.6-58.8 11.6-108.2 11.4-109.6-0.4-1.4-42 28-93.6 65.8-51 37.4-97.4 70.4-103 73.4-13.6 7-37.8 8.4-54 3.2-23.8-7.4-44-27.6-51.4-51.2-6.6-21.8-3.8-41.198 9.2-60.8 12.6-18.8 21-23.4 134-73.6 58-25.6 105.4-47.4 105.2-48.4 0-1-45.4-21.4-100.6-45.202-55.2-23.798-105-46-110.6-49.4-13.4-8-27.8-23.798-34.4-37.798-4.6-9.6-5.4-14-5.4-28.4 0-14.802 0.8-18.6 6.4-30.4 8-16.798 19.4-29.4 34-37.198 23.4-12.4 45.2-12.202 70.6 0.6 7.2 3.6 53.6 36.198 103 72.6 65.2 47.802 90.2 65.202 90.6 62.802 0.2-1.802-4.8-51.6-11.4-110.4-12.8-116-13-120-3.8-139.6 6-12.6 19.4-25.6 33.2-32 10-4.802 14-5.4 31.4-5.4 17.802 0 21.2 0.6 31.4 5.6 21.4 10.6 35.4 29.202 39.798 53.6 2 11.602 1 23.602-10 121.602-6.798 59.798-12 109-11.6 109.398s37.4-26.398 82.6-59.6c109.802-80.798 114.602-83.798 134.8-87.6 40.6-7.6 84.4 27.4 87.6 70 1.202 17.802-2.198 31.198-11.798 46-13.202 20.4-20.802 24.6-134.802 73.802-57.198 24.6-104.802 45.398-105.6 46.198-1 0.802 43.6 21.6 99 46 121.198 53.6 117.6 52 131 64.4 14.198 13.6 21 27.8 22.198 46.4 2.202 35.6-20.4 68.8-53.4 78.4-16.198 4.8-40.398 3-54.6-3.8-5.798-3-52.6-36-103.4-73.4-51-37.4-93.198-67.8-93.6-67.4s4.802 50.2 11.6 110.6c13.202 119.6 13.4 122.2 3.4 142.4-6 12.6-19.6 25.6-32.798 31.8-13.802 6.2-39.202 8.2-52.202 3.8z" />
<glyph unicode="&#xe602;" d="M859.276 471.002l-315.14 315.128c-18.142 18.152-47.574 18.152-65.74 0l-65.434-65.446 83.006-83.012c19.296 6.516 41.418 2.144 56.792-13.232 15.462-15.47 19.796-37.784 13.118-57.144l80.006-80c19.36 6.674 41.686 2.36 57.148-13.124 21.602-21.598 21.602-56.606 0-78.216-21.616-21.614-56.618-21.614-78.242 0-16.248 16.262-20.27 40.136-12.030 60.154l-74.622 74.616v-196.348c5.262-2.61 10.23-6.084 14.622-10.46 21.602-21.596 21.602-56.6 0-78.23-21.602-21.596-56.63-21.596-78.216 0-21.6 21.63-21.6 56.634 0 78.23 5.34 5.336 11.52 9.372 18.12 12.072v198.164c-6.6 2.702-12.766 6.702-18.12 12.072-16.362 16.354-20.296 40.37-11.908 60.464l-81.83 81.846-216.090-216.072c-18.148-18.168-18.148-47.602 0-65.756l315.156-315.124c18.14-18.146 47.568-18.146 65.738 0l313.666 313.666c18.158 18.154 18.158 47.604 0 65.752z" />
<glyph unicode="&#xe603;" d="M511.996 840.416v0c-196.018 0-356.072-52.704-356.072-118.134 0-17.238 42.746-264.352 59.698-362.356 7.606-43.952 121.184-108.396 296.288-108.396l0.18 0.528v-0.528c175.104 0 288.682 64.446 296.286 108.396 16.958 98.004 59.704 345.118 59.704 362.356-0.004 65.432-160.062 118.134-356.084 118.134zM511.996 330.918c-62.51 0-113.188 50.688-113.188 113.194 0 62.522 50.678 113.194 113.188 113.194 62.516 0 113.19-50.676 113.19-113.194 0-62.506-50.674-113.194-113.19-113.194zM511.932 685.77c-125.94 0.204-227.998 22.084-227.958 48.882 0.042 26.806 102.182 48.36 228.12 48.152 125.944-0.206 228.002-22.078 227.958-48.884s-102.176-48.352-228.12-48.15zM767.924 280.652c-5.416 0-9.752-3.83-9.752-3.83s-87.694-69.438-246.178-69.444c-158.482 0.006-246.174 69.444-246.174 69.444s-4.336 3.83-9.748 3.83c-6.464 0-12.598-4.342-12.598-13.926 0-1.018 0.096-2.022 0.284-3.014 13.612-72.844 23.552-124.524 25.304-132.392 11.878-53.586 116.692-94.016 242.922-94.022v0h0.024c126.23 0.006 231.044 40.436 242.922 94.022 1.752 7.87 11.694 59.554 25.304 132.392 0.184 0.992 0.28 1.996 0.28 3.014 0.002 9.586-6.13 13.926-12.59 13.926zM576.958 443.194c0-34.058-27.61-61.668-61.668-61.668s-61.668 27.61-61.668 61.668c0 34.058 27.61 61.668 61.668 61.668s61.668-27.61 61.668-61.668z" />
<glyph unicode="&#xe604;" d="M162.61 781.010c-18.050-18.050-13.538-38.806 18.048-85.734 16.242-24.362 35.2-62.27 42.418-83.928 7.218-22.562 21.662-53.244 31.586-68.586 18.050-25.266 18.050-30.682 6.318-76.708-7.218-28.88-9.932-64.98-6.318-87.538 5.412-37.906 36.1-92.952 55.046-99.27 16.25-5.41 39.712 23.472 40.61 49.638 0 22.558 0.906 23.47 10.83 7.22 17.152-27.976 71.298-87.534 75.81-83.020 1.808 1.798-9.932 25.268-27.072 51.434-16.242 27.074-35.2 62.274-42.416 78.516-9.924 27.072-13.536 28.88-25.268 16.242-7.218-7.216-16.242-27.972-18.958-46.92-7.216-43.326-23.46-48.736-36.098-11.74-12.63 37.006-12.63 100.18 0 143.496 9.026 29.778 8.128 37.904-7.216 60.466-9.924 13.536-25.268 46.022-33.394 72.196-8.116 25.268-27.074 63.174-42.408 83.024-35.2 49.634-35.2 67.684 1.796 60.466 15.344-2.71 38.814-13.536 53.25-23.466 13.536-9.928 36.998-18.048 51.44-18.048 43.316 0 119.126-42.418 174.17-97.464 42.418-42.416 64.072-76.708 110.1-169.664 54.148-110.096 58.662-116.414 92.052-127.244 39.702-13.538 122.732-64.070 122.732-74.902 0-3.616-20.754-9.028-46.020-10.832-67.686-7.22-74.008-19.856-29.792-59.558 20.768-18.052 59.57-46.028 87.542-61.366l50.544-28.88-23.47 29.778c-13.538 16.242-41.51 41.508-63.17 55.044-21.654 13.538-38.804 27.982-38.804 31.588 0 3.614 15.342 9.932 34.294 12.64 50.54 9.024 64.976 13.534 64.976 22.558 0 13.538-91.14 82.124-134.468 101.078-36.996 17.144-41.51 24.37-89.338 122.73-42.416 90.246-59.566 115.516-113.712 169.662-69.484 69.488-117.32 99.27-178.686 108.294-20.756 3.61-49.634 14.44-62.264 23.466-29.788 22.562-90.246 30.682-104.692 15.34z" />
<glyph unicode="&#xe605;" d="M512 506.372c-189.292 0-337.576 66.724-337.576 151.908s148.284 151.91 337.576 151.91 337.576-66.724 337.576-151.91c0-85.182-148.284-151.908-337.576-151.908zM512 776.432c-143.708 0-303.816-48.526-303.816-118.152s160.108-118.148 303.816-118.148c143.702 0 303.82 48.524 303.82 118.15s-160.118 118.15-303.82 118.15zM512 371.342c-189.292 0-337.576 66.724-337.576 151.91v135.030c0 9.332 7.542 16.88 16.878 16.88 9.338 0 16.88-7.548 16.88-16.88v-135.030c0-69.624 160.108-118.152 303.816-118.152 143.702 0 303.82 48.526 303.82 118.152v135.030c0 9.332 7.546 16.88 16.876 16.88 9.334 0 16.88-7.548 16.88-16.88v-135.030c0.002-85.186-148.282-151.91-337.574-151.91zM512 219.432c-189.292 0-337.576 66.726-337.576 151.91v151.91c0 9.328 7.542 16.88 16.878 16.88 9.338 0 16.88-7.552 16.88-16.88v-151.91c0-69.624 160.108-118.152 303.816-118.152 143.702 0 303.82 48.528 303.82 118.152v151.91c0 9.328 7.546 16.88 16.876 16.88 9.334 0 16.88-7.552 16.88-16.88v-151.91c0.002-85.184-148.282-151.91-337.574-151.91zM512 67.526c-189.292 0-337.576 66.722-337.576 151.906v151.91c0 9.328 7.542 16.878 16.878 16.878 9.338 0 16.88-7.55 16.88-16.878v-151.91c0-69.624 160.108-118.152 303.816-118.152 143.702 0 303.82 48.528 303.82 118.152v151.91c0 9.328 7.546 16.878 16.876 16.878 9.334 0 16.88-7.55 16.88-16.878v-151.91c0.002-85.184-148.282-151.906-337.574-151.906z" />
<glyph unicode="&#xe606;" d="M512 78.924c-170.352 0-308.516 46.094-308.516 102.836 0 31.036 0 64.98 0 102.84 0 8.938 4.468 17.426 10.896 25.71 34.398-44.29 154.008-77.128 297.62-77.128s263.22 32.84 297.62 77.128c6.426-8.286 10.896-16.774 10.896-25.71 0-29.778 0-61.364 0-102.84 0-56.742-138.19-102.836-308.516-102.836zM512 284.6c-170.352 0-308.516 46.098-308.516 102.84 0 31.054 0 64.95 0 102.836 0 5.448 2.058 10.746 4.82 15.994v0c1.558 3.288 3.616 6.526 6.076 9.716 34.398-44.264 154.008-77.128 297.62-77.128s263.22 32.866 297.62 77.13c2.458-3.19 4.52-6.428 6.076-9.716v0c2.76-5.248 4.82-10.546 4.82-15.994 0-29.778 0-61.336 0-102.836 0-56.744-138.19-102.842-308.516-102.842zM512 490.276c-170.352 0-308.516 46.072-308.516 102.836 0 16.246 0 33.418 0 51.42 0 16.344 0 33.318 0 51.418 0 56.768 138.164 102.84 308.516 102.84 170.326 0 308.516-46.072 308.516-102.84 0-16.042 0-33.066 0-51.418 0-15.742 0-32.338 0-51.42 0-56.764-138.19-102.836-308.516-102.836zM512 747.372c-113.584 0-205.676-22.972-205.676-51.418s92.092-51.418 205.676-51.418c113.584 0 205.678 22.972 205.678 51.418s-92.094 51.418-205.678 51.418z" />
<glyph unicode="&#xe607;" d="M153.286 401.042l211.032-137.714 147.696 123.17-212.81 131.334zM364.318 772.32l-211.032-137.644 145.918-116.844 212.81 131.346zM870.714 634.676l-211.032 137.644-147.668-123.142 212.772-131.346zM512.014 386.498l147.668-123.17 211.032 137.714-145.928 116.79zM512.438 360.012l-148.12-122.834-63.38 41.396v-46.436l211.5-126.742 211.484 126.742v46.436l-63.38-41.396z" />
<glyph unicode="&#xe608;" d="M636.982 388.908c13.726 0 25.278-6.708 35.264-20.364 9.91-13.492 14.974-30.196 14.974-49.926 0-19.816-4.984-36.512-14.974-50.016-9.986-13.492-21.694-20.278-35.264-20.278-14.436 0-26.84 6.708-36.826 20.278-9.83 13.504-14.896 30.2-14.896 50.016 0 19.808 4.908 36.434 14.896 49.926 9.986 13.658 22.468 20.364 36.826 20.364zM813.608 571.78c38.468-41.702 57.892-92.296 57.892-151.626 0-38.5-4.53-73.144-13.266-103.958-8.886-30.664-20.122-55.786-33.548-74.972-13.65-19.348-30.186-36.356-50.082-50.71-19.896-14.746-38.232-25.278-54.768-32.062-16.536-6.79-35.58-12.024-57.11-15.684-21.294-3.75-37.372-5.774-48.528-6.32-10.762-0.464-22.468-0.7-35.108-0.7-2.808 0-12.324-0.316-28.124-0.782-15.408-0.624-28.668-0.942-38.966-0.942-10.302 0-23.564 0.316-38.972 0.942-15.676 0.464-25.278 0.782-28.124 0.782-12.638 0-24.452 0.156-35.148 0.7-11.194 0.546-27.26 2.57-48.448 6.32-21.644 3.582-40.562 8.742-57.184 15.684-16.542 6.708-34.838 17.316-54.65 32.062-19.974 14.512-36.512 31.442-50.166 50.71-13.418 19.188-24.69 44.308-33.544 74.972-8.7 30.812-13.262 65.458-13.262 103.958 0 59.33 19.346 109.924 57.924 151.626-4.25 2.066-4.482 22.856-0.658 62.452 3.428 39.634 11.854 76.146 25.508 109.458 48.094-5.112 107.27-32.258 178.154-81.258 23.946 6.246 56.71 9.442 98.492 9.442 43.848 0 76.612-3.196 98.538-9.442 32.296 21.804 63.192 39.634 92.682 53.212 29.96 13.418 51.486 21.334 65.062 23.4l20.288 4.646c13.726-33.31 22.152-69.906 25.59-109.458 3.974-39.594 3.738-60.384-0.474-62.452zM513.676 170.15c86.48 0 151.708 10.376 196.014 31.124 44.166 20.832 66.634 63.668 66.634 128.266 0 37.442-14.124 68.808-42.29 93.812-14.516 13.574-31.524 21.804-51.028 25-19.028 3.124-48.442 3.124-88.154 0-39.556-3.196-66.626-4.64-81.178-4.64-19.814 0-41.306 1.050-67.988 3.124-26.682 1.988-47.594 3.274-62.536 3.898-15.29 0.47-31.552-1.444-49.228-5.5-17.824-4.254-32.258-11.43-43.92-21.806-26.874-23.992-40.528-55.204-40.528-93.812 0-64.598 21.88-107.438 65.614-128.188 43.684-20.906 108.71-31.208 195.238-31.208zM388.58 388.908c13.576 0 25.238-6.708 35.14-20.364 9.908-13.492 14.946-30.196 14.946-49.926 0-19.816-4.96-36.512-14.946-50.016-9.904-13.492-21.648-20.278-35.14-20.278-14.548 0-26.918 6.708-36.906 20.278-9.904 13.504-14.942 30.2-14.942 50.016 0 19.808 4.956 36.434 14.942 49.926 9.988 13.658 22.358 20.364 36.906 20.364z" />
<glyph unicode="&#xe609;" d="M512 789.010c-198.258 0-359.004-160.746-359.004-359 0-158.64 102.856-293.18 245.524-340.642 17.944-3.284 24.498 7.802 24.498 17.27 0 8.544-0.33 36.856-0.504 66.83-99.832-21.692-120.932 42.336-120.932 42.336-16.344 41.456-39.858 52.498-39.858 52.498-32.626 22.262 2.474 21.824 2.474 21.824 36.044-2.498 55.024-36.986 55.024-36.986 32.036-54.87 84.052-39.004 104.474-29.8 3.262 23.138 12.554 39.004 22.788 47.944-79.692 9.070-163.528 39.878-163.528 177.438 0 39.224 14.002 71.212 36.922 96.346-3.66 9.116-16.018 45.644 3.548 95.052 0 0 30.108 9.642 98.736-36.812 28.616 8 59.314 11.942 89.838 12.076 30.5-0.132 61.218-4.12 89.882-12.118 68.496 46.498 98.644 36.812 98.644 36.812 19.632-49.454 7.278-85.936 3.598-95.008 23.008-25.134 36.898-57.124 36.898-96.346 0-137.912-83.968-168.28-163.946-177.174 12.93-11.132 24.364-32.958 24.364-66.438 0-47.988-0.476-86.682-0.476-98.514 0-9.556 6.528-20.73 24.714-17.226 142.558 47.552 245.324 182.088 245.324 340.642 0.002 198.25-160.744 358.996-359.002 358.996z" />
<glyph unicode="&#xe60a;" d="M512 81.858c-196.862 0-357 160.176-357 357 0 196.822 160.138 357 357 357s357-160.178 357-357c0-196.824-160.14-357-357-357zM512 716.524c-153.070 0-277.666-124.558-277.666-277.666 0-153.090 124.598-277.668 277.666-277.668 153.088 0 277.668 124.578 277.668 277.668 0 153.108-124.58 277.666-277.668 277.666zM574.056 414.028c6.816 0 12.55-3.33 17.51-10.112 4.92-6.7 7.436-14.992 7.436-24.79 0-9.84-2.476-18.128-7.436-24.834-4.958-6.7-10.772-10.068-17.51-10.068-7.168 0-13.326 3.33-18.286 10.068-4.88 6.706-7.396 14.994-7.396 24.834 0 9.836 2.438 18.090 7.396 24.79 4.96 6.782 11.158 10.112 18.286 10.112zM661.756 504.828c19.1-20.706 28.744-45.828 28.744-75.286 0-19.116-2.248-36.316-6.586-51.618-4.414-15.224-9.992-27.698-16.658-37.224-6.778-9.608-14.988-18.050-24.868-25.18-9.878-7.322-18.982-12.55-27.194-15.92s-17.666-5.968-28.356-7.788c-10.574-1.862-18.556-2.868-24.096-3.138-5.344-0.23-11.156-0.348-17.432-0.348-1.394 0-6.12-0.156-13.964-0.386-7.65-0.31-14.234-0.466-19.348-0.466-5.116 0-11.7 0.156-19.35 0.466-7.784 0.23-12.55 0.386-13.964 0.386-6.276 0-12.14 0.078-17.452 0.348-5.558 0.272-13.536 1.278-24.056 3.138-10.746 1.78-20.14 4.34-28.392 7.788-8.214 3.33-17.298 8.598-27.134 15.92-9.918 7.206-18.128 15.612-24.91 25.18-6.662 9.528-12.26 22-16.656 37.224-4.32 15.3-6.584 32.502-6.584 51.618 0 29.458 9.606 54.58 28.76 75.286-2.112 1.026-2.226 11.348-0.326 31.008 1.702 19.68 5.884 37.808 12.666 54.348 23.88-2.538 53.262-16.018 88.458-40.346 11.89 3.102 28.158 4.688 48.904 4.688 21.772 0 38.040-1.586 48.926-4.688 16.038 10.828 31.376 19.68 46.020 26.42 14.876 6.664 25.564 10.592 32.304 11.62l10.072 2.306c6.816-16.54 11-34.71 12.708-54.348 1.972-19.66 1.856-29.982-0.236-31.008zM512.832 305.408c42.94 0 75.326 5.152 97.326 15.456 21.928 10.344 33.084 31.612 33.084 63.686 0 18.592-7.012 34.166-20.996 46.58-7.208 6.74-15.652 10.828-25.336 12.414-9.45 1.55-24.052 1.55-43.772 0-19.64-1.586-33.082-2.304-40.306-2.304-9.838 0-20.508 0.522-33.756 1.55-13.248 0.988-23.632 1.626-31.050 1.936-7.592 0.234-15.666-0.716-24.444-2.73-8.85-2.112-16.018-5.674-21.808-10.828-13.342-11.912-20.124-27.408-20.124-46.58 0-32.074 10.864-53.344 32.58-63.646 21.69-10.38 53.976-15.496 96.94-15.496zM450.718 414.028c6.742 0 12.532-3.33 17.448-10.112 4.92-6.7 7.422-14.992 7.422-24.79 0-9.84-2.462-18.128-7.422-24.834-4.916-6.7-10.75-10.068-17.448-10.068-7.224 0-13.366 3.33-18.324 10.068-4.916 6.706-7.418 14.994-7.418 24.834 0 9.836 2.46 18.090 7.418 24.79 4.96 6.782 11.102 10.112 18.324 10.112z" />
<glyph unicode="&#xe60b;" d="M149.794 439.352c0-143.122 83.192-266.93 203.876-325.478l-172.528 472.728c-20.1-45.018-31.348-94.772-31.348-147.25zM755.722 457.63c0 44.702-16.094 75.688-29.826 99.762-18.336 29.826-35.492 55.020-35.492 84.858 0 33.254 25.132 64.184 60.744 64.184 1.534 0 3.098-0.212 4.632-0.314-64.33 58.948-150.064 94.986-244.232 94.986-126.406 0-237.572-64.874-302.218-163.060 8.506-0.272 16.47-0.458 23.256-0.458 37.846 0 96.408 4.648 96.408 4.648 19.454 1.088 21.762-27.49 2.264-29.84 0 0-19.568-2.266-41.39-3.442l131.746-391.77 79.174 237.374-56.38 154.398c-19.482 1.176-37.932 3.442-37.932 3.442-19.51 1.176-17.188 30.928 2.324 29.84 0 0 59.696-4.648 95.218-4.648 37.812 0 96.46 4.648 96.46 4.648 19.412 1.088 21.734-27.49 2.226-29.84 0 0-19.542-2.266-41.358-3.442l130.734-388.786 36.096 120.506c18.336 47.030 27.546 85.966 27.546 116.954zM517.892 407.702l-108.56-315.398c32.392-9.516 66.624-14.696 102.206-14.696 42.088 0 82.518 7.288 120.118 20.542-0.972 1.536-1.866 3.158-2.596 4.934l-111.168 304.618zM828.92 612.942c1.592-11.564 2.494-23.902 2.494-37.244 0-36.684-6.884-77.93-27.542-129.562l-110.48-319.394c107.51 62.666 179.814 179.146 179.814 312.594 0.012 62.938-16.054 122.046-44.286 173.606z" />
<glyph unicode="&#xe60c;" d="M554.222 658.754c-78.222-78.222-144.010-141.934-147.116-141.934-2.59 0-45.582 31.596-94.796 69.93l-89.102 69.934-72.522-36.264v-362.604l72.522-36.264 82.362 64.238c45.588 35.734 87.54 67.852 93.242 71.486 10.366 6.216 20.718-3.116 154.888-136.762l143.488-143.486 88.062 35.746 88.058 35.222v582.244l-67.336 26.932c-36.778 15.026-76.666 30.564-88.576 35.23l-21.242 8.286-141.932-141.932zM694.602 439.114c0-79.77-1.038-145.038-3.11-145.038-7.248 0-183.37 141.932-181.822 146.592 1.558 5.698 175.088 142.972 181.298 142.972 2.082 0.52 3.636-64.75 3.636-144.526zM282.784 490.918l51.802-51.804-51.802-51.798c-28.49-28.492-53.354-51.798-55.428-51.798-2.592 0-4.146 46.62-4.146 103.596 0 56.98 1.552 103.608 4.146 103.608 2.074 0 26.938-23.314 55.428-51.804z" />
<glyph unicode="&#xe60d;" d="M393.84 151.354c-2.726-32.452 13.646-56.712 44.278-64.902 25.168-6.672 54.282 5.156 66.716 27.6 3.64 6.366 44.886 112.21 91.59 235.338 78.548 206.832 85.824 224.724 96.742 235.946 6.674 6.976 12.134 13.948 12.134 15.77s-5.762 8.494-12.736 14.558c-27.902 25.168-93.408 46.096-121.312 38.818-4.544-1.212-5.458-4.852-5.458-18.802 0-17.592-3.030-28.506-21.23-74.606-5.154-13.346-13.648-36.39-18.798-51.558-4.856-14.86-13.044-36.088-17.894-47.006-4.554-10.914-14.56-36.086-22.14-56.11-7.586-20.014-21.832-57.918-31.844-84.61-10.006-26.38-21.228-51.554-25.17-55.492zM640.094 636.284c30.63-12.736 46.404-28.202 33.664-33.058-12.126-4.548-66.412 14.858-80.672 29.114-5.458 5.46-5.76 7.278-2.73 11.222 5.156 5.762 25.174 3.032 49.736-7.278zM589.752 597.77c10.92-11.526 33.058-19.712 57.32-20.622 12.134-0.606 21.832-1.216 21.832-1.82 0-0.304-2.124-3.944-4.544-7.582-2.426-3.642-12.436-28.206-22.448-54.286-15.766-41.246-19.708-49.134-30.626-59.138-16.682-15.164-43.066-30.024-62.172-34.57-8.188-2.124-20.926-6.068-28.202-9.402-7.278-3.034-14.556-5.458-15.77-5.458-2.734 0 5.762 24.866 34.874 100.082 9.402 24.258 21.84 56.712 27.598 72.178 6.066 15.164 11.828 27.9 13.048 27.9 1.208 0 5.452-3.336 9.092-7.276zM616.438 444.92c-0.906-1.214-29.11-74.604-62.47-162.856-53.984-142.534-62.17-161.952-71.572-170.438-5.764-5.458-13.038-10.010-15.77-9.706-3.642 0-2.426 1.212 3.032 3.332 4.854 1.82 8.188 5.158 8.188 8.496 0 3.034 1.216 6.366 2.73 7.582 1.52 0.908 3.942 6.068 5.154 11.222 0.908 5.456 3.032 11.824 4.244 14.554 4.55 8.492 18.196 43.976 18.196 46.398 0 1.516 1.818 6.98 4.25 12.136 2.424 5.456 10.010 24.866 16.986 43.064 6.97 18.494 15.462 40.938 18.802 50.038 3.64 9.096 7.576 17.896 9.096 19.408 1.212 1.82 2.422 5.758 2.422 8.794 0 3.028 2.13 10.312 4.552 16.074 9.098 20.63 13.044 30.332 18.198 45.188 2.73 8.494 6.366 17.586 7.88 20.318 3.038 5.758 3.64 14.558 1.22 14.558-0.91 0-5.462-2.126-10.008-4.85-7.284-4.25-7.284-4.25 0.91 2.12 5.148 3.942 13.948 11.524 19.708 16.982 9.706 9.102 17.592 13.342 14.25 7.582zM532.434 401.854c0-1.512-2.124-3.028-4.852-3.028-5.76 0-14.256-19.716-14.256-32.452 0.304-5.456-0.908-10.006-2.426-10.006-4.856 0-15.464-24.87-16.982-40.942-1.52-13.952-0.908-16.38 4.248-19.414 8.188-4.24 10.308-13.644 4.848-21.226-4.548-6.672-17.286-8.486-20.62-3.338-4.55 7.284-7.882 2.428-6.070-8.488 1.52-10.314 0.916-12.13-5.452-14.86-4.858-2.424-9.404-8.798-12.742-18.198-10.616-28.808-20.314-54.28-26.080-69.144-3.334-8.188-6.978-21.842-7.884-29.722-1.52-12.438-0.61-15.472 5.46-22.442l7.276-8.188-9.702 6.668c-10.006 6.98-22.142 28.512-22.142 39.43 0 3.64 8.8 30.33 19.714 59.75 10.918 29.11 19.714 54.89 19.714 56.706 0 2.124 10.006 13.65 21.838 25.784 12.126 12.126 20.012 22.13 17.586 22.13-2.428 0-8.798-4.246-14.254-9.702s-10.010-8.188-10.010-6.068c0 9.104 28.51 75.824 35.79 83.706 6.666 7.28 32.748 26.086 36.084 26.086 0.61-0.004 0.914-1.222 0.914-3.038z" />
<glyph unicode="&#xe60e;" d="M217.65 310.932c0-39.368-27.424-71.574-60.94-71.574-33.522 0-60.95 32.208-60.95 71.574v234.26c0 39.372 27.426 71.58 60.95 71.58 33.516 0 60.94-32.208 60.94-71.58v-234.26zM928.238 310.932c0-39.368-27.426-71.574-60.946-71.574s-60.952 32.208-60.952 71.574v234.26c0 39.372 27.434 71.58 60.952 71.58s60.946-32.208 60.946-71.58v-234.26zM645.25 843.218l39.106 70.166c3.194 5.732 2.254 12.402-2.090 14.824s-10.516-0.29-13.708-6.020l-40.012-71.792c-35.672 14.036-75.66 21.904-117.9 21.904-42.552 0-82.824-7.988-118.708-22.228l-40.192 72.116c-3.192 5.732-9.36 8.44-13.7 6.020-4.348-2.42-5.284-9.092-2.092-14.824l39.298-70.52c-81.762-38.398-136.84-110.506-136.84-193.134 0-8.396 0.592-16.676 1.694-24.828h541.074c1.106 8.152 1.696 16.43 1.696 24.828 0 82.886-55.43 155.184-137.626 193.488zM387.104 720.742c-13.15 0-23.808 10.658-23.808 23.808 0 13.148 10.658 23.81 23.808 23.81s23.808-10.662 23.808-23.81c0.002-13.15-10.66-23.808-23.808-23.808zM635.54 720.742c-13.15 0-23.81 10.658-23.81 23.808 0 13.148 10.66 23.81 23.81 23.81s23.808-10.662 23.808-23.81c0-13.15-10.66-23.808-23.808-23.808zM238.416 601.232v-399.084h0.23c2.796-33.71 33.804-60.496 71.348-60.496h401.298c37.542 0 68.544 26.786 71.352 60.496h0.23v399.084h-544.458zM471.666 143.67v-123.468c0-39.368-27.426-71.58-60.946-71.58s-60.942 32.212-60.942 71.58v123.344zM674.824 143.734v-123.532c0-39.368-27.43-71.58-60.95-71.58s-60.948 32.212-60.948 71.58v123.532z" />
<glyph unicode="&#xe60f;" d="M442.278 455.644h-289.218v247.9l289.218 41.314zM870.94 455.644h-389.926v294.334l389.926 56.858zM442.278 422.072h-289.218v-247.9l289.218-41.318zM870.94 422.072h-389.926v-294.332l389.926-56.86z" />
<glyph unicode="&#xe610;" d="M194.554 197.276v-170.246h536.54v341.524l-27.86-3.098-28.89-3.094-3.090-141.356-3.096-142.388h-422.012v288.904h-51.59v-170.248zM287.416 171.48v-30.952h330.18v61.908h-330.178v-30.956zM292.386 293.372l-3.354-30.772 328.236-35.78 6.708 61.546-328.234 35.78-3.356-30.774zM317.064 438.97l-8.030-29.894 318.878-85.644 16.058 59.79-318.876 85.644-8.030-29.896zM384.76 608.716l-16.482-26.202 279.488-175.802 32.96 52.406-279.484 175.8-16.482-26.202zM542.864 766.78l-25.496-17.556 187.284-271.928 50.986 35.116-187.282 271.924-25.492-17.556zM749.224 846.438l-30.432-5.674 60.564-324.582 60.856 11.356-60.558 324.578-30.43-5.678z" />
<glyph unicode="&#xe611;" d="M736.736 413.018c-1.046 104.29 85.038 154.308 88.876 156.824-48.37 70.74-123.732 80.448-150.562 81.542-64.074 6.52-125.108-37.75-157.624-37.75-32.44 0-82.67 36.8-135.81 35.87-69.922-1.046-134.354-40.672-170.338-103.256-72.6-125.942-18.562-312.602 52.176-414.83 34.596-49.956 75.838-106.184 129.944-104.124 52.158 2.060 71.834 33.746 134.892 33.746 63.042 0 80.758-33.746 135.924-32.682 56.080 1.010 91.64 50.916 125.958 101.082 39.692 58.042 56.046 114.24 57.012 117.102-1.21 0.554-109.32 41.976-110.448 166.476zM633.068 719.034c28.698 34.838 48.142 83.256 42.864 131.446-41.424-1.684-91.556-27.534-121.284-62.34-26.632-30.884-49.938-80.054-43.694-127.378 46.196-3.578 93.322 23.498 122.114 58.272z" />
<glyph unicode="&#xe612;" d="M497.084 690.852c0-3.26-3.26-3.26-3.26-3.26h-3.266c-3.262 0-3.262 3.26-6.528 6.526 0 0-3.262 3.264-3.262 6.528s0 3.264 3.262 3.264l6.528-3.264c3.266-3.264 6.526-6.528 6.526-9.794zM438.34 723.49c0 16.318-6.526 26.108-16.318 26.108 0 0 0-3.264-3.264-3.264v-6.528h9.792c0-6.528 3.264-9.79 3.264-16.318h6.526zM552.566 739.806c6.528 0 9.792-6.528 13.054-16.318h6.528c-3.264 3.264-3.264 6.528-3.264 9.79 0 3.264 0 6.528-3.264 9.792s-6.528 6.528-9.792 6.528c0 0-3.264-3.264-6.528-3.264 0.002-3.264 3.266-3.264 3.266-6.528zM454.662 687.59c-3.266 0-3.266 0-3.266 3.26 0 3.266 0 6.53 3.266 9.792 6.526 0 9.788 3.264 9.788 3.264 3.266 0 3.266-3.264 3.266-3.264 0-3.264-3.266-6.528-9.792-13.054h-3.262zM418.76 690.852c-13.054 6.53-16.318 16.32-16.318 32.638 0 9.79 0 16.318 6.528 22.844 3.264 6.526 9.79 9.79 16.318 9.79s9.79-3.264 16.318-9.79c3.264-9.792 6.528-19.582 6.528-29.372v-6.528h3.264v3.264c3.266 0 3.266 6.528 3.266 19.582 0 9.792 0 19.582-6.53 29.372-6.528 9.792-13.054 16.32-26.108 16.32-9.79 0-19.582-6.528-22.844-16.32-6.528-13.054-7.834-22.844-7.834-39.162 0-13.054 4.57-26.108 17.624-39.164 3.262 3.264 6.524 3.264 9.788 6.526zM826.704 230.69c3.264 0 3.264 1.304 3.264 4.242 0 7.18-3.264 15.664-13.052 25.13-9.792 9.79-26.11 15.988-45.69 18.6-3.264 0.326-6.528 0.326-6.528 0.326-3.264 0.654-3.264 0.654-6.528 0.654-3.264 0.326-9.792 0.978-13.054 1.63 9.792 30.354 13.054 57.114 13.054 80.61 0 32.638-6.528 55.48-19.582 75.064-13.054 19.58-26.11 29.372-42.426 32.634-3.264-3.264-3.264-3.264-3.264-6.528 16.316-6.528 32.634-19.58 42.428-39.162 9.79-22.844 13.052-42.426 13.052-65.272 0-18.278-3.264-45.364-16.318-79.958-13.054-5.218-26.11-17.294-35.898-36.224 0-2.938 0-4.57 3.262-4.57 0 0 3.264 2.938 6.528 8.486 6.528 5.546 9.792 11.096 16.318 16.644 9.792 5.548 16.318 8.486 26.11 8.486 16.318 0 32.636-2.286 42.426-6.856 13.054-4.24 19.582-8.81 22.846-14.034 3.264-4.894 6.528-9.462 9.792-13.708 0-4.238 3.26-6.194 3.26-6.194zM526.458 703.908c-3.264 3.264-3.264 9.79-3.264 16.318 0 13.054 0 19.582 6.528 29.372 6.526 6.526 13.052 9.79 19.58 9.79 9.792 0 16.318-6.528 22.846-13.054 3.262-9.792 6.526-16.318 6.526-26.108 0-16.318-6.526-26.108-19.58-29.374 0 0 3.264-3.26 6.528-3.26 6.528 0 9.79-3.266 16.318-6.528 3.262 19.582 6.528 32.634 6.528 48.954 0 19.582-3.266 32.634-9.792 42.426-9.79 9.792-19.58 13.056-32.634 13.056-9.792 0-19.58-3.264-29.372-9.792-6.53-9.792-9.792-16.32-9.792-26.11 0-16.318 3.262-29.372 9.792-42.426 3.262 0 6.526-3.264 9.788-3.264zM565.62 651.69c-42.426-29.372-75.064-42.426-101.172-42.426-22.844 0-45.69 9.792-65.27 26.108 3.264-6.528 6.528-13.054 9.792-16.318l19.582-19.582c13.054-13.054 29.372-19.582 45.692-19.582 22.842 0 48.954 13.054 81.588 35.898l29.372 19.582c6.528 6.53 13.054 13.056 13.054 22.844 0 3.266 0 6.528-3.262 6.528-3.266 6.526-19.584 16.32-52.218 26.108-29.372 13.056-52.218 19.584-65.272 19.584-9.788 0-26.108-6.526-48.952-19.584-19.582-13.054-32.636-26.108-32.636-39.162 0 0 3.264-3.262 6.528-9.788 19.582-16.32 39.162-26.11 58.746-26.11 26.108 0 58.744 13.054 101.17 45.692v-6.528c3.258 0.002 3.258-3.264 3.258-3.264zM640.684-7.552c13.054-24.542 35.898-36.876 62.006-36.876 6.528 0 13.054 0.978 19.582 2.936 6.528 1.306 13.056 3.592 16.318 6.202 3.266 2.286 6.528 4.57 9.792 7.182 6.528 2.284 6.528 3.916 9.792 5.546l55.48 47.974c13.052 10.41 26.108 19.516 42.426 27.414 13.054 7.834 26.11 13.052 32.636 15.99 9.792 2.612 16.318 6.528 22.844 11.75 3.264 4.894 6.528 11.096 6.528 18.93 0 9.462-6.528 16.642-13.052 21.866-6.528 5.22-13.054 8.81-19.582 11.096s-13.054 7.508-22.844 16.316c-6.53 8.486-13.056 20.234-16.32 35.576l-3.264 18.928c-3.264 8.81-3.264 15.338-6.528 18.93 0 0.978 0 1.304-3.264 1.304s-9.79-2.938-13.052-8.486c-6.528-5.546-13.054-11.748-19.582-18.276-3.264-6.526-13.054-12.4-19.58-17.95-9.792-5.548-19.582-8.486-26.11-8.486-26.11 0-39.164 7.182-48.956 21.212-6.528 10.444-9.79 22.52-13.052 36.226-6.528 5.546-9.792 8.484-16.318 8.484-16.318 0-22.844-16.97-22.844-51.236v-101.5c0-2.938-3.264-9.464-3.264-19.582-3.264-10.118-3.264-21.606-3.264-34.594l-6.528-36.226v-0.554zM167.464 9.81c30.35-4.436 65.27-13.934 104.76-28.424 39.488-14.36 63.64-21.868 72.45-21.868 22.846 0 41.776 10.118 57.44 29.666 3.264 6.332 3.264 13.774 3.264 22.324 0 30.84-18.602 69.84-55.808 117.162l-22.192 29.698c-4.568 6.202-10.118 15.666-17.296 28.394-6.854 12.726-13.056 22.518-17.95 29.372-4.242 7.508-11.096 15.014-19.908 22.52-8.486 7.504-18.276 12.4-29.044 15.012-13.708-2.612-23.172-7.182-27.742-13.38-4.57-6.202-7.18-13.054-7.834-20.234-0.978-6.854-2.938-11.424-6.202-13.708-3.262-1.958-8.81-3.59-16.318-5.222-1.63 0-4.568 0-8.81-0.326h-8.812c-17.298 0-29.046-1.956-35.246-5.22-8.16-9.462-12.402-20.234-12.402-31.658 0-5.22 1.304-14.032 3.916-26.434 2.612-12.074 3.916-21.868 3.916-28.718 0-13.38-3.916-26.762-12.076-40.14-8.158-14.036-12.4-24.478-12.4-31.92 3.264-12.662 24.802-21.572 64.292-26.792zM276.142 306.568c0 22.52 5.876 47.322 17.95 76.694 11.748 29.374 23.498 48.956 34.92 62.010-0.654 3.262-2.284 3.262-4.896 3.262l-3.264 3.266c-9.464-9.792-20.888-32.636-34.594-65.274-13.706-29.372-20.886-56.458-20.886-76.368 0-14.686 3.59-27.414 10.118-38.51 7.18-10.77 24.476-26.436 51.89-46.344l34.594-22.518c36.876-31.984 56.46-54.176 56.46-67.23 0-6.854-3.264-13.706-13.054-21.212-6.53-7.832-15.338-11.748-22.846-11.748-0.652 0-0.978-0.652-0.978-2.286 0-0.326 3.264-6.854 10.118-19.58 13.708-18.604 43.080-27.742 82.244-27.742 71.796 0 127.28 29.374 169.706 88.118 0 16.318 0 26.436-3.264 30.678v12.074c0 21.212 3.264 37.204 9.792 47.646 6.528 10.446 13.052 15.34 22.844 15.34 6.528 0 13.054-2.286 19.582-7.18 3.264 25.128 3.264 46.996 3.264 66.576 0 29.7 0 54.176-6.528 77.020-3.264 19.582-9.792 35.9-16.318 48.956-6.528 9.79-13.054 19.582-19.58 29.37-6.528 9.792-9.792 19.584-16.318 29.374-3.264 13.054-6.528 22.844-6.528 39.162-9.792 16.32-16.316 32.634-26.11 48.956-6.528 16.316-13.054 32.634-19.582 45.69l-29.372-22.848c-32.636-22.842-58.746-32.634-81.588-32.634-19.584 0-35.902 3.266-45.692 16.32l-19.582 16.316c0-9.788-3.264-22.842-9.792-35.896l-20.56-39.164c-9.138-22.844-14.032-35.898-15.012-45.69-1.304-6.528-2.284-13.056-2.938-13.056l-24.476-48.952c-26.438-48.956-39.818-94.32-39.818-131.85 0-7.506 0.652-15.34 1.958-23.174-14.684 10.118-21.864 24.152-21.864 42.428zM509.812-2.164c-42.424 0-75.062-5.744-97.906-17.136v0.98c-16.32-19.58-34.594-29.7-60.050-29.7-15.992 0-41.122 6.202-75.062 18.604-34.268 11.748-64.618 20.756-91.052 26.696-2.612 0.75-8.486 1.862-17.95 3.362-9.138 1.47-17.624 2.97-25.13 4.47-6.852 1.47-14.686 3.69-23.17 6.692-8.16 2.578-14.686 5.94-19.582 10.018-4.504 4.114-6.724 8.748-6.724 13.938 0 5.22 1.11 10.8 3.33 16.742 2.088 3.59 4.374 7.18 6.658 10.444 2.284 3.588 4.242 6.852 5.546 10.116 1.958 2.938 3.264 5.876 4.57 9.138 1.304 2.938 2.612 5.876 3.264 9.464 0.652 3.264 1.304 6.528 1.304 9.792s-1.304 13.054-3.916 30.352c-2.612 16.968-3.916 27.74-3.916 32.308 0 14.362 3.264 25.782 10.442 33.942 7.18 8.158 14.034 12.402 21.214 12.402h37.53c2.936 0 7.506 1.63 14.36 5.548 2.286 5.22 4.242 9.462 5.548 13.38 1.63 3.914 2.282 6.852 2.936 8.156 0.652 1.958 1.304 3.918 1.958 5.548 1.306 2.284 2.938 4.896 5.222 7.506-2.612 3.266-3.916 7.506-3.916 12.728 0 3.592 0 6.854 0.652 8.812 0 11.748 5.548 28.392 17.296 50.258l11.424 20.562c9.464 17.622 16.644 30.676 21.866 43.73 5.548 13.054 11.42 32.636 17.948 58.744 5.222 22.844 17.624 45.69 37.206 68.536l24.478 29.372c16.97 19.582 28.068 35.902 34.268 48.956s9.464 29.372 9.464 42.426c0 6.528-1.632 26.108-5.222 58.746-3.264 32.636-4.896 65.27-4.896 94.642 0 22.846 1.958 39.164 6.2 55.482 4.244 16.318 11.75 32.636 22.844 45.69 9.792 13.054 22.846 26.108 42.428 32.634 19.582 6.53 42.426 9.792 68.534 9.792 9.792 0 19.582 0 29.374-3.264 9.792 0 22.846-3.266 39.162-9.792 13.054-6.528 26.11-13.054 35.902-22.844 13.052-9.792 22.844-26.108 32.634-42.426 6.528-19.582 13.052-39.162 16.316-65.272 3.264-16.318 3.264-32.636 6.528-55.48 0-19.582 3.264-32.634 3.264-42.428 3.264-9.788 3.264-22.844 6.528-39.162 3.264-13.054 6.528-26.108 13.054-35.898 6.528-13.054 13.052-26.11 22.844-39.164 9.792-16.316 22.846-32.636 35.898-52.216 29.376-32.634 52.218-68.536 65.274-104.432 16.316-32.636 26.108-75.062 26.108-120.426 0-22.522-3.264-44.384-9.792-65.6 6.528 0 9.792-2.61 13.054-7.18 3.264-4.568 6.528-14.36 9.792-29.7l3.264-24.148c3.264-7.18 6.528-14.036 16.318-19.908 6.528-5.874 13.054-10.77 22.846-14.686 6.528-3.264 16.316-7.834 22.844-13.708 6.528-6.528 9.792-13.38 9.792-20.558 0-11.096-3.264-19.256-9.792-25.13-6.528-6.528-13.052-11.096-22.844-14.034-6.528-3.262-19.584-9.79-39.164-18.994-16.318-9.658-32.636-21.376-48.954-35.246l-32.634-27.772c-13.054-12.728-26.112-21.868-35.902-27.416-9.79-5.876-22.844-8.812-35.898-8.812l-22.844 2.612c-26.108 6.854-42.426 19.908-52.216 39.816-52.218 6.33-94.644 9.464-120.754 9.464z" />
<glyph unicode="&#xe613;" d="M446.432 452.434l61.354 106.876c4.584 7.99 1.81 18.264-6.178 22.918l-43.652 24.972c-7.96 4.612-18.278 1.838-22.846-6.15l-202.126-352.016c-4.614-7.99-1.812-18.234 6.178-22.818l43.624-25.088c7.99-4.582 18.292-1.808 22.918 6.15l140.728 245.156zM857.806 484.52h-147.28c17.328-32.472 33.406-63.034 44.714-84.658 7.818-14.944 14.026-26.74 16.222-30.72 2.286-4.198 3.938-8.536 5.032-12.96h81.31c8.364 0 15.174 6.784 15.174 15.144v98.050c0.002 8.362-6.808 15.144-15.172 15.144zM499.796 484.52l-73.682-128.34h199.956c-14.5 28.65-33.738 69.628-59.572 128.34h-66.702zM333.264 484.52h-169.538c-8.362 0-15.144-6.782-15.144-15.13v-98.050c0-8.364 6.782-15.144 15.144-15.144h95.854l73.684 128.324zM268.546 181.932l-43.624 25.032c-7.99 4.58-15.376 0.832-16.438-8.306l-7.544-65.694c-1.050-9.138 4.326-12.414 11.94-7.242l56.354 38.422c7.634 5.144 7.304 13.174-0.688 17.788zM744.896 354.544c-0.258 0.428-0.574 1.034-0.89 1.636v0c-4.052 7.5-14.222 27.014-27.558 52.332-0.144 0.344-0.316 0.644-0.488 0.976-1.006 1.954-2.040 3.908-3.102 5.92-0.778 1.436-1.54 2.886-2.33 4.368-0.63 1.266-1.318 2.528-1.982 3.822-1.178 2.24-2.384 4.482-3.594 6.782-0.372 0.72-0.746 1.44-1.12 2.154-1.352 2.59-2.73 5.176-4.138 7.802-0.388 0.76-0.776 1.508-1.194 2.27-30.734 58.108-69.328 129.648-93.136 167.266-41.7 65.91-97.364 175.788-112.924 167.972-21.754-10.834 45.622-150.296 67.908-202.714 22.31-52.388 109.358-253.204 126.788-261.97 17.488-8.736 24.226-3.878 35.88 0.938 11.666 4.868 32.558 21.004 21.88 40.446zM794.64 251.074l-20.774 39.884c-4.702 9.012-15.764 12.688-24.6 8.192l-25.060-12.904c-8.824-4.57-11.596-15.26-6.18-23.878l26.294-41.526c5.432-8.564 16.9-11.368 25.42-6.236l17.874 10.746c8.552 5.116 11.712 16.698 7.026 25.722zM788.236 193.324c-6.552-6.264-22.102-19.884-3.278-46.31 18.75-26.496 60.694-27.672 66.238-45.26 0.016 0 13.164 134.522-62.96 91.57z" />
<glyph unicode="&#xe614;" d="M155.488 723.17v-67.696h424.204v135.384h-424.202v-67.688zM733.124 723.17v-67.696h135.39v135.384h-135.39v-67.688zM155.488 434.352v-67.688h713.022v135.38h-713.024v-67.688zM155.488 150.032v-63.174h279.796v126.366h-279.796v-63.192zM588.72 150.032v-63.174h279.794v126.366h-279.794v-63.192z" />
<glyph unicode="&#xe615;" d="M249.172 531.132l-0.024-0.008 0.026 0.018c-7.648-2.676-13.884-2.518-21.398-0.008l-0.026 0.016c-24.738-62.076-53.238-132.142-78.874-184.394l0.228 0.076-0.124-0.054c11.72 2.91 22.912 2.012 30.306 0.010-0.016 0.008-0.030 0.018-0.048 0.028l0.040-0.016c6.534 16.516 13.976 35.226 21.416 54.042l0.040-0.028c25.19 0.722 50.376 0.818 75.566 0l0.012 0.010c7.154-18.016 14.334-36.042 21.34-54.082v-0.008c0.002 0 0 0 0.002 0 11.21 2.93 22.368 2.134 30.614 0.062h0.002l0.028-0.012-0.032 0.016c-18.468 34.49-55.534 124.722-79.094 184.332zM271.14 413.692c-21.784-0.762-43.57-0.774-65.354 0l-0.016-0.010c13.332 33.82 25.998 66.45 32.678 85.678 10.184-28.396 21.398-57.012 32.776-85.708l-0.084 0.040zM148.88 346.732l0.104 0.044c-0.038-0.006-0.070-0.010-0.104-0.022v-0.022zM193.358 555.644c-0.006-0.006-0.012-0.012-0.020-0.012l0.012 0.012c-11.066-2.506-21.046-2.596-30.954 0-8.734-16.266-40.942-68.898-61.438-102.604-20.79 34.436-45.406 74.182-61.436 102.604-12.714-2.71-18.036-2.886-30.722 0 25.18-37.942 65.528-110.212 79.252-133.936l-1.838-98.918c0 0 8.854 1.484 14.77 1.484 6.556 0 14.72-1.484 14.72-1.484l-1.844 98.918c25.612 44.938 67.892 118.252 79.498 133.936zM607.246 533.554c-65.172 0-99.36-41.322-99.36-94.882 0-58.626 37.324-94.382 99.258-94.382 66.96 0 99.668 40.296 99.668 93.768 0 59.618-39.054 95.496-99.566 95.496zM607.438 354.73c-43.446 0-68.964 31.128-68.964 83.634 0 59.384 31.45 83.284 67.172 84.016 0.57 0.014 1.14 0 1.71 0 39.856 0 69.118-27.14 69.118-83.862-0.002-56.646-29.224-83.788-69.036-83.788zM967.066 351.504c-9.664 0-14.484-7.368-14.484-15.292 0-9.35 7.46-14.14 16.692-14.14 6.676 0 13.96 4.056 13.96 15.066 0 8.84-6.922 14.366-16.168 14.366zM1002.328 552.956l-0.012-0.012v0.010c0 0-1.91 0.266-3.2 0.266-7.372 0-14.68-4.324-14.68-15.376-4.376-55.476-8.93-111.104-16.422-164.042l-0.032-0.036c0.008 0 0.016 0 0.028 0.004v-0.004l0.032 0.008c4.532 0.776 8.046-0.406 11.458-1.784l-0.020 0.040c8.504 53.768 28.7 134.298 33.872 157.088 0.742 3.204 1.848 6.994 1.848 9.69 0 8.13-5.158 12.858-12.872 14.148zM832.218 544.654c-64.894 0-114.5-36.854-114.5-105.372 0-56.442 32.996-106.13 115.040-106.13 69.458 0 114.812 38.19 114.812 105.138 0 63.13-42.308 106.364-115.352 106.364zM832.376 344.288c-43.95 0-83.976 25.792-83.976 95.402 0 72.152 44.372 93.5 83.898 93.5 48.734 0 84.636-29.604 84.636-94.902-0.004-70.978-43.426-94-84.558-94zM468.306 531.066c1.49-28.652 2.23-57.326 2.334-86.020-34.342-0.798-68.654-0.87-102.92 0 0.106 28.694 0.846 57.372 2.334 86.020-10.060-2.428-20.294-2.498-30.714 0 2.672-61.548 2.442-122.972 0-184.314 9.978 2.4 20.192 2.506 30.682 0l-0.058 0.034 0.090-0.034c-1.512 28.6-2.232 57.172-2.328 85.724 34.302 0.478 68.606 0.5 102.91 0.042-0.094-28.572-0.818-57.152-2.332-85.768l0.102 0.042-0.062-0.042c10.49 2.51 20.708 2.402 30.678 0-2.438 61.338-2.678 122.766 0 184.314-10.418-2.496-20.656-2.424-30.716 0.002z" />
<glyph unicode="&#xe616;" d="M871.732 554.006c-0.162 0.876-0.312 1.744-0.54 2.598-0.14 0.51-0.322 0.998-0.482 1.506-0.246 0.758-0.492 1.518-0.798 2.256-0.216 0.51-0.454 1.008-0.69 1.506-0.332 0.702-0.674 1.388-1.060 2.056-0.276 0.494-0.578 0.962-0.882 1.436-0.418 0.644-0.846 1.27-1.308 1.88-0.34 0.454-0.692 0.896-1.060 1.332-0.482 0.584-1.004 1.138-1.538 1.682-0.406 0.412-0.814 0.82-1.24 1.208-0.558 0.512-1.146 0.996-1.75 1.47-0.466 0.36-0.92 0.724-1.402 1.060-0.172 0.124-0.332 0.27-0.514 0.386l-329.298 219.534c-10.394 6.936-23.946 6.936-34.34 0l-329.298-219.534c-0.18-0.118-0.332-0.264-0.512-0.386-0.484-0.336-0.938-0.702-1.402-1.060-0.596-0.474-1.194-0.958-1.752-1.47-0.426-0.39-0.834-0.796-1.232-1.208-0.542-0.544-1.052-1.098-1.546-1.682-0.37-0.434-0.718-0.876-1.060-1.332-0.464-0.612-0.892-1.236-1.308-1.88-0.302-0.474-0.606-0.944-0.88-1.436-0.39-0.666-0.73-1.354-1.052-2.056-0.236-0.498-0.482-0.996-0.692-1.506-0.304-0.738-0.56-1.498-0.806-2.256-0.162-0.508-0.34-0.996-0.474-1.506-0.228-0.854-0.388-1.72-0.54-2.598-0.084-0.446-0.188-0.884-0.256-1.334-0.17-1.336-0.274-2.682-0.274-4.046v-219.528c0-1.364 0.104-2.708 0.274-4.046 0.068-0.454 0.17-0.886 0.256-1.336 0.152-0.872 0.312-1.742 0.54-2.594 0.132-0.512 0.312-1.004 0.474-1.508 0.246-0.758 0.502-1.516 0.806-2.266 0.208-0.512 0.456-1.004 0.692-1.496 0.322-0.7 0.664-1.382 1.052-2.066 0.274-0.484 0.578-0.958 0.88-1.422 0.416-0.64 0.844-1.27 1.308-1.882 0.342-0.464 0.692-0.902 1.060-1.336 0.494-0.578 1.004-1.136 1.546-1.68 0.396-0.406 0.804-0.824 1.232-1.204 0.558-0.512 1.156-1.004 1.752-1.476 0.464-0.364 0.918-0.722 1.402-1.062 0.18-0.124 0.332-0.266 0.512-0.378l329.296-219.532c5.204-3.468 11.182-5.21 17.17-5.21s11.976 1.742 17.17 5.21l329.296 219.532c0.182 0.114 0.342 0.254 0.514 0.378 0.482 0.34 0.936 0.7 1.402 1.062 0.604 0.472 1.192 0.964 1.75 1.476 0.426 0.378 0.834 0.796 1.24 1.204 0.534 0.542 1.054 1.102 1.538 1.68 0.37 0.434 0.72 0.872 1.060 1.336 0.462 0.614 0.89 1.242 1.308 1.882 0.304 0.464 0.608 0.938 0.882 1.422 0.386 0.684 0.728 1.368 1.060 2.066 0.236 0.492 0.472 0.984 0.69 1.496 0.306 0.75 0.552 1.508 0.798 2.266 0.16 0.504 0.342 0.996 0.482 1.508 0.226 0.852 0.376 1.722 0.54 2.594 0.074 0.45 0.19 0.882 0.246 1.336 0.17 1.34 0.276 2.684 0.276 4.046v219.526c0 1.364-0.106 2.708-0.276 4.046-0.052 0.45-0.168 0.89-0.242 1.336zM512 365.616l-109.5 73.242 109.5 73.246 109.51-73.246-109.51-73.242zM481.042 565.884l-134.232-89.776-108.354 72.474 242.586 161.72v-144.418zM291.124 438.858l-77.454-51.808v103.622l77.454-51.814zM346.81 401.604l134.232-89.77v-144.422l-242.586 161.722 108.354 72.47zM542.958 311.834l134.23 89.77 108.364-72.468-242.594-161.722v144.42zM732.876 438.858l77.462 51.812v-103.622l-77.462 51.81zM677.188 476.108l-134.23 89.776v144.418l242.594-161.72-108.364-72.474z" />
<glyph unicode="&#xe617;" d="M203.782 458.526h-84.89c-2.184 0-3.958-1.774-3.958-3.976v-41.488c0-2.206 1.774-3.972 3.958-3.972h33.126v-51.576c0 0-7.44-2.482-27.978-2.482-24.256 0-58.128 8.884-58.128 83.342 0 74.49 35.268 84.292 68.39 84.292 28.674 0 41.008-5.034 48.878-7.476 2.466-0.778 4.718 1.7 4.718 3.906l9.486 40.096c0 1.024-0.366 2.258-1.5 3.090-3.202 2.25-22.672 13.144-71.844 13.144-56.678 0-114.802-24.11-114.802-139.996 0-115.878 66.54-133.136 122.62-133.136 46.42 0 74.624 19.826 74.624 19.826 1.148 0.63 1.27 2.25 1.27 2.978v129.446c-0.018 2.194-1.804 3.982-3.97 3.982zM633.062 565.528h-47.762c-2.204 0-3.968-1.778-3.968-3.98v-92.352h-74.486v92.352c0 2.204-1.784 3.98-3.934 3.98h-47.81c-2.15 0-3.902-1.778-3.902-3.98v-250.062c0-2.214 1.766-3.986 3.902-3.986h47.81c2.182 0 3.934 1.79 3.934 3.986v106.944h74.486l-0.172-106.958c0-2.218 1.766-3.97 3.902-3.97h47.824c2.204 0 3.918 1.79 3.918 3.97l0.172 250.082c0.036 2.198-1.75 3.974-3.914 3.974zM260.874 559.86c-17.018 0-30.82-13.924-30.82-31.116 0-17.196 13.802-31.124 30.82-31.124s30.806 13.926 30.806 31.124c0.002 17.192-13.782 31.116-30.806 31.116zM288.298 479.65c0 2.184-1.766 3.996-3.916 3.996h-47.66c-2.238 0-4.136-2.252-4.136-4.462 0 0 0-138.904 0-165.376 0-4.834 3.020-6.304 6.936-6.304 0 0 20.304 0 42.928 0 4.682 0 5.914 2.3 5.914 6.406-0.030 8.866-0.030 43.57-0.030 50.304-0.036 6.408-0.036 115.436-0.036 115.436zM818.050 483.27h-47.41c-2.168 0-3.902-1.794-3.902-3.994v-122.594c0 0-12.046-8.876-29.192-8.876-17.082 0-21.648 7.756-21.648 24.544 0 16.734 0 106.938 0 106.938 0 2.206-1.782 3.996-3.922 3.996h-48.090c-2.204 0-3.934-1.792-3.934-3.996 0 0 0-65.294 0-115.026 0-49.724 27.718-61.914 65.812-61.914 31.27 0 56.536 17.292 56.536 17.292s1.184-9.072 1.774-10.154c0.512-1.086 1.93-2.166 3.472-2.166h30.472c2.164 0 3.938 1.786 3.938 3.984l0.132 167.988c-0.104 2.184-1.874 3.978-4.038 3.978zM947.918 488.902c-26.942 0-45.262-12.022-45.262-12.022v84.666c0 2.204-1.786 3.98-3.918 3.98h-47.96c-2.148 0-3.914-1.778-3.914-3.98l-0.136-250.078c0-2.222 1.786-3.97 3.95-3.97 0 0 33.364 0 33.394 0 1.484 0 2.598 0.768 3.45 2.104 0.836 1.346 2.020 11.538 2.020 11.538s19.554-18.576 56.68-18.576c43.57 0 68.542 22.102 68.542 99.224-0.002 77.022-39.908 87.114-66.846 87.114zM929.21 347.976c-16.438 0.506-27.574 7.972-27.574 7.972v79.216c0 0 11.016 6.762 24.528 7.956 17.078 1.518 33.59-3.638 33.59-44.392-0.090-42.952-7.524-51.434-30.544-50.752zM426.364 348.882c-2.102 0-7.47-0.836-12.97-0.836-17.574 0-23.574 8.184-23.574 18.774 0 10.634 0 70.338 0 70.338h35.874c2.2 0 3.934 1.776 3.934 3.994v38.534c0.034 2.214-1.736 3.996-3.934 3.996h-35.874l-0.052 47.35c0 1.792-0.95 2.684-3.018 2.684h-48.83c-1.884 0-2.932-0.846-2.932-2.666v-48.938c0 0-24.49-5.912-26.14-6.4-1.63-0.466-2.832-2.006-2.832-3.806v-30.772c0-2.2 1.784-3.992 3.936-3.992h25.038c0 0 0-32.148 0-73.992 0-54.95 38.556-60.346 64.564-60.346 11.872 0 26.078 3.872 28.456 4.7 1.432 0.504 2.252 1.982 2.252 3.566l0.018 33.828c0.004 2.212-1.85 4.010-3.916 3.984z" />
<glyph unicode="&#xe618;" d="M511.92 35.364c-10.79 0-21.548 2.828-31.020 8.302l-98.762 58.43c-14.726 8.23-7.508 11.152-2.662 12.854 19.664 6.832 23.648 8.398 44.618 20.31 2.204 1.224 5.102 0.768 7.378-0.566l75.83-45.014c2.77-1.542 6.628-1.542 9.17 0l295.722 170.668c2.758 1.576 4.504 4.758 4.504 7.99v341.296c0 3.344-1.762 6.472-4.574 8.158l-295.592 170.526c-2.746 1.588-6.38 1.588-9.124 0l-295.508-170.588c-2.864-1.624-4.678-4.872-4.678-8.096v-341.296c0-3.248 1.802-6.342 4.642-7.904l81.016-46.792c43.954-21.984 70.872 3.896 70.872 29.91v336.964c0 4.762 3.84 8.518 8.594 8.518h37.506c4.678 0 8.552-3.754 8.552-8.518v-336.964c0-58.658-31.948-92.314-87.562-92.314-17.084 0-30.55 0-68.13 18.522l-77.534 44.64c-19.146 11.080-31.010 31.778-31.010 53.94v341.294c0 22.164 11.864 42.86 31.010 53.894l295.736 170.888c18.724 10.582 43.58 10.582 62.15 0l295.704-170.888c19.152-11.082 31.066-31.73 31.066-53.894v-341.296c0-22.162-11.914-42.788-31.066-53.94l-295.704-170.732c-9.458-5.474-20.188-8.302-31.144-8.302zM603.286 270.482c-129.446 0-156.53 59.418-156.53 109.246 0 4.728 3.79 8.506 8.518 8.506h38.252c4.26 0 7.834-3.082 8.482-7.244 5.764-38.928 22.958-58.576 101.254-58.576 62.282 0 88.79 14.116 88.79 47.144 0 19.060-7.496 33.186-104.332 42.692-80.886 7.99-130.968 25.882-130.968 90.606 0 59.682 50.314 95.25 134.636 95.25 94.742 0 141.602-32.874 147.566-103.444 0.218-2.396-0.636-4.742-2.282-6.558-1.618-1.722-3.868-2.744-6.258-2.744h-38.39c-3.958 0-7.468 2.814-8.274 6.69-9.23 40.958-31.61 54.040-92.364 54.040-68.020 0-75.93-23.694-75.93-41.43 0-21.536 9.352-27.794 101.16-39.948 90.894-12.008 134.070-29.008 134.070-92.88 0.014-64.432-53.702-101.35-147.4-101.35z" />
<glyph unicode="&#xe619;" d="M169.736 429.984c0 3.050-1.604 5.852-4.234 7.362l-70.128 40.36c-1.184 0.7-2.516 1.062-3.858 1.118-0.124 0-0.628 0-0.724 0-1.342-0.056-2.67-0.416-3.874-1.118l-70.124-40.36c-2.618-1.51-4.242-4.308-4.242-7.362l0.154-108.676c0-1.506 0.788-2.918 2.112-3.656 1.306-0.782 2.916-0.782 4.21 0l41.676 23.862c2.636 1.566 4.24 4.33 4.24 7.354v50.776c0 3.020 1.604 5.822 4.228 7.332l17.746 10.222c1.322 0.758 2.766 1.13 4.248 1.13 1.444 0 2.926-0.374 4.21-1.13l17.744-10.222c2.624-1.51 4.234-4.308 4.234-7.332v-50.776c0-3.024 1.626-5.802 4.248-7.354l41.666-23.862c1.31-0.782 2.938-0.782 4.236 0 1.292 0.744 2.104 2.15 2.104 3.656l0.128 108.676zM544.2 579.378c-1.312 0.73-2.914 0.714-4.208-0.048-1.292-0.756-2.090-2.148-2.090-3.654v-107.622c0-1.052-0.566-2.036-1.476-2.568-0.926-0.528-2.054-0.528-2.968 0l-17.562 10.122c-2.628 1.51-5.846 1.504-8.47-0.002l-70.15-40.488c-2.626-1.512-4.242-4.312-4.242-7.33v-81.006c0-3.024 1.614-5.812 4.234-7.336l70.156-40.512c2.622-1.514 5.852-1.514 8.468 0l70.168 40.512c2.622 1.524 4.234 4.312 4.234 7.336v201.9c0 3.070-1.66 5.9-4.348 7.4l-41.746 23.296zM537.692 373.402c0-0.754-0.398-1.458-1.054-1.834l-24.094-13.884c-0.646-0.38-1.462-0.38-2.112 0l-24.086 13.884c-0.662 0.376-1.062 1.080-1.062 1.834v27.81c0 0.756 0.402 1.458 1.062 1.834l24.082 13.918c0.654 0.376 1.466 0.376 2.122 0l24.088-13.918c0.656-0.376 1.054-1.078 1.054-1.834v-27.81zM795.196 401.946c2.606 1.508 4.21 4.304 4.21 7.318v19.628c0 3.024-1.606 5.808-4.214 7.33l-69.708 40.47c-2.624 1.524-5.864 1.528-8.488 0.012l-70.132-40.486c-2.618-1.518-4.23-4.312-4.23-7.338v-80.97c0-3.042 1.628-5.86 4.278-7.366l69.696-39.712c2.574-1.458 5.714-1.48 8.312-0.044l42.156 23.434c1.328 0.742 2.16 2.146 2.172 3.67 0.008 1.53-0.8 2.944-2.124 3.704l-70.578 40.512c-1.316 0.75-2.124 2.158-2.124 3.67v25.38c0 1.51 0.808 2.91 2.118 3.67l21.972 12.656c1.304 0.752 2.918 0.752 4.222 0l21.98-12.656c1.308-0.76 2.118-2.16 2.118-3.67v-19.974c0-1.514 0.804-2.91 2.124-3.668 1.312-0.756 2.93-0.748 4.242 0.012l41.998 24.418zM297.304 477.13c2.622 1.512 5.85 1.512 8.47 0l70.152-40.482c2.616-1.512 4.234-4.302 4.234-7.334v-81.026c0-3.026-1.618-5.818-4.234-7.34l-70.152-40.512c-2.622-1.506-5.852-1.506-8.47 0l-70.132 40.512c-2.622 1.518-4.234 4.314-4.234 7.34v81.026c0 3.032 1.614 5.822 4.238 7.334l70.128 40.482zM931.394 299.282c-2.414 0-4.824 0.63-6.942 1.856l-22.090 13.070c-3.292 1.84-1.68 2.494-0.594 2.874 4.398 1.53 5.29 1.878 9.98 4.542 0.492 0.276 1.14 0.174 1.648-0.124l16.96-10.068c0.622-0.344 1.484-0.344 2.050 0l66.148 38.174c0.614 0.352 1.004 1.064 1.004 1.788v76.338c0 0.75-0.39 1.45-1.024 1.826l-66.118 38.142c-0.614 0.356-1.426 0.356-2.040 0l-66.098-38.156c-0.64-0.364-1.046-1.090-1.046-1.812v-76.338c0-0.726 0.406-1.418 1.040-1.768l18.122-10.464c9.832-4.918 15.852 0.87 15.852 6.69v75.366c0 1.066 0.86 1.904 1.922 1.904h8.39c1.046 0 1.914-0.838 1.914-1.904v-75.37c0-13.122-7.144-20.648-19.586-20.648-3.82 0-6.836 0-15.238 4.14l-17.344 9.986c-4.282 2.476-6.938 7.108-6.938 12.064v76.338c0 4.958 2.656 9.588 6.938 12.054l66.148 38.224c4.188 2.366 9.75 2.366 13.902 0l66.14-38.224c4.286-2.476 6.95-7.096 6.95-12.054v-76.338c0-4.958-2.664-9.568-6.95-12.064l-66.14-38.19c-2.112-1.224-4.51-1.854-6.96-1.854zM951.828 351.872c-28.954 0-35.012 13.292-35.012 24.434 0 1.058 0.848 1.904 1.906 1.904h8.554c0.954 0 1.754-0.692 1.898-1.62 1.29-8.708 5.136-13.104 22.648-13.104 13.93 0 19.86 3.156 19.86 10.544 0 4.264-1.676 7.424-23.336 9.548-18.094 1.788-29.292 5.79-29.292 20.268 0 13.35 11.25 21.302 30.114 21.302 21.192 0 31.672-7.352 33.004-23.136 0.050-0.536-0.14-1.060-0.508-1.466-0.364-0.384-0.864-0.614-1.402-0.614h-8.586c-0.882 0-1.668 0.628-1.852 1.496-2.062 9.162-7.066 12.088-20.656 12.088-15.214 0-16.984-5.3-16.984-9.268 0-4.816 2.094-6.218 22.628-8.936 20.328-2.686 29.988-6.488 29.988-20.774 0-14.41-12.010-22.666-32.972-22.666zM720.208 405.734c0.504 0.288 1.118 0.288 1.628 0l13.46-7.764c0.5-0.292 0.816-0.832 0.816-1.412v-15.546c0-0.582-0.316-1.118-0.816-1.404l-13.46-7.776c-0.512-0.284-1.124-0.284-1.628 0l-13.45 7.776c-0.5 0.288-0.812 0.822-0.812 1.404v15.546c0 0.58 0.312 1.12 0.812 1.412l13.45 7.764z" />
<glyph unicode="&#xe61a;" d="M810.834 762.692v-601.666h-601.668v601.666h601.668zM871 822.858h-722v-722h722v722zM586.524 644.238h85.174l-120.146-225.624v-135.376h-75.018v135.376l-124.472 225.624h88.556l74.644-157.184 71.262 157.184z" />
<glyph unicode="&#xe61b;" d="M704.618 343.5c0 0-4.658 16.52 12.704 48.288 17.366 31.76 30.922 14.396 30.922 14.396s14.822-16.090-2.12-40.23c-16.938-24.152-41.506-22.454-41.506-22.454zM571.206 320.632c-19.906-52.098-68.192-30.92-68.192-30.92s-5.506 18.636 10.162 70.73c15.676 52.1 52.52 31.764 52.52 31.764s25.412-19.48 5.51-71.574zM535.206 538.748c0 0 30.072 78.354 37.268 40.234 7.196-38.118-63.106-151.62-63.106-151.62 0.842 25.412 25.838 111.386 25.838 111.386zM105.32 343.5c1.268 50.402 34.306 72.426 45.744 61.416 11.436-11.014 7.2-34.734-14.404-49.556-21.6-14.822-31.34-11.86-31.34-11.86zM1016.334 351.868c-1.698 16.942-16.946 10.644-16.946 10.644s-24.562-19.046-46.166-16.932c-21.598 2.12-14.822 50.42-14.822 50.42s4.658 44.262-8.044 47.976c-12.708 3.71-28.378-11.534-28.378-11.534s-19.48-21.602-28.8-49.132l-2.542-0.846c0 0 2.97 48.282-0.414 59.29-2.544 5.508-25.834 5.086-29.648-4.656s-22.448-77.508-23.72-105.88c0 0-36.424-30.922-68.19-36.006-31.766-5.080-39.388 14.828-39.388 14.828s86.406 24.14 83.438 93.176c-2.962 69.036-69.676 43.504-77.214 37.828-7.302-5.488-46.304-29-57.67-94.118-0.39-2.22-1.066-11.898-1.066-11.898s-33.458-22.444-52.1-28.378c0 0 52.1 87.672-11.43 127.488-28.796 17.36-51.668-19.066-51.668-19.066s85.97 95.72 66.914 176.614c-9.080 38.524-28.328 42.656-46.006 36.424-26.834-10.588-37.002-26.26-37.002-26.26s-34.736-50.4-42.78-125.366c-8.048-74.96-19.908-165.6-19.908-165.6s-16.514-16.094-31.762-16.936c-15.248-0.85-8.47 45.31-8.47 45.31s11.858 70.308 11.014 82.164c-0.85 11.86-1.696 18.212-15.674 22.448-13.978 4.23-29.22-13.554-29.22-13.554s-40.236-60.988-43.622-70.3l-2.118-3.814-2.114 2.544c0 0 28.376 83.010 1.268 84.28-27.104 1.268-44.896-29.644-44.896-29.644s-30.922-51.664-32.192-57.594l-2.118 2.542c0 0 12.708 60.138 10.162 74.958-2.542 14.824-16.514 11.86-16.514 11.86s-17.788 2.12-22.448-9.316c-4.662-11.436-21.6-87.25-23.72-111.39 0 0-44.472-31.764-73.698-32.186-29.222-0.424-26.258 18.532-26.258 18.532s107.152 36.678 77.93 109.098c-13.13 18.634-28.378 24.496-49.976 24.076-21.598-0.422-48.4-13.602-65.768-52.57-8.3-18.586-11.316-36.22-13.010-49.568 0 0-18.756-3.826-28.92 4.64s-15.396 0-15.396 0-17.452-22.24-0.086-29.018c17.364-6.778 44.472-9.944 44.472-9.944h-0.020c2.49-11.864 9.744-32.010 30.88-48.068 31.764-24.14 92.736 2.22 92.736 2.22l24.99 14.026c0 0 0.848-22.92 19.060-26.272 18.212-3.336 25.834 0.050 57.6 77.132 18.638 39.384 19.908 37.288 19.908 37.288l2.118 0.42c0 0-14.4-75.386-8.896-95.718 5.506-20.324 29.646-18.21 29.646-18.21s13.126-2.542 23.716 34.73c10.592 37.274 30.924 78.354 30.924 78.354h2.54c0 0-8.894-77.084 4.662-101.644 13.554-24.566 48.704-8.27 48.704-8.27s24.568 12.402 28.378 16.212c0 0 29.156-24.816 70.292-20.31 91.926 18.092 124.62 42.524 124.62 42.524s15.792-40.018 64.714-43.72c55.91-4.246 86.4 30.932 86.4 30.932s-0.424-22.874 19.062-30.918c19.478-8.048 32.606 37.168 32.606 37.168l32.61 89.89h2.966c0 0 1.694-58.45 33.88-67.768 32.192-9.316 74.118 21.814 74.118 21.814s10.164 5.618 8.47 22.554z" />
<glyph unicode="&#xe61c;" d="M261.52 670.21c0-0.942 0-61.256 0-134.382v-132.876l-6.032-12.248c-8.294-16.396-28.46-36.566-45.8-45.61-19.604-10.178-32.984-13.572-53.716-13.572-31.474 0-54.656 9.802-77.462 32.61-28.46 28.644-39.768 67.284-30.91 105.544 4.9 20.92 13.382 35.436 30.156 52.206 24.69 24.88 48.438 33.928 83.872 32.23 23.182-1.13 37.508-5.466 54.844-16.584 6.412-4.148 11.688-7.354 12.064-6.976 0.188 0.376 1.318 8.294 2.638 17.526 1.318 9.424 2.83 18.66 3.394 20.924 0.752 3.202-1.508 4.9-13.948 10.74-21.862 10.178-37.132 13.382-64.646 13.382-29.212 0-43.348-3.206-68.982-15.834-39.2-19.036-67.284-54.846-78.782-100.076-4.52-18.284-4.146-55.224 0.942-73.318 13.57-49.38 49.38-86.698 99.704-104.038 17.15-5.844 19.224-6.034 46.176-6.22 24.502 0 30.156 0.564 42.406 4.524 18.662 5.652 33.926 13.38 49.57 24.874 6.974 5.092 12.814 9.238 13.194 9.238 0.188 0 0.376-6.976 0.376-15.456v-15.644l48.062-1.13v371.482h-23.56c-13.002 0-23.558-0.564-23.558-1.318zM649.778 632.892v-29.214h37.698v58.428h-37.698v-29.214zM416.446 649.102c-1.506-0.942-2.264-4.146-1.884-7.916l0.564-6.41 63.516-0.564 63.704-0.378 1.13 4.524c0.566 2.448 0.758 6.222 0.38 8.104-0.566 3.206-4.332 3.394-62.762 3.772-34.306 0.376-63.328-0.19-64.65-1.13zM804.706 648.534c-2.448-2.448-2.828-6.972-1.136-11.682 0.946-2.642 8.484-3.020 64.082-3.020h62.952l2.074 4.524c1.508 3.204 1.508 5.464 0 8.48-2.262 3.958-2.824 3.958-63.894 3.958-45.61 0-62.388-0.564-64.078-2.264zM450.936 591.618c-29.022-5.654-55.032-18.474-74.26-36.378-22.426-20.542-35.432-42.216-44.478-72.938-3.956-13.76-4.712-20.544-4.712-39.582 0-28.648 3.014-41.65 15.264-66.908 8.296-17.15 11.878-21.86 26.764-36.938 20.168-20.168 35.81-30.158 61.632-39.016 17.154-5.844 19.034-6.034 47.118-6.22 28.272 0 29.778 0.186 47.12 6.22 63.89 22.24 103.66 76.712 104.034 142.678 0.192 26.76-3.77 43.534-15.832 68.792-8.48 17.528-11.492 21.674-27.702 37.694-14.702 14.702-21.302 19.79-35.434 26.952-9.614 4.904-24.13 10.746-32.040 12.818-19.036 4.9-50.134 6.22-67.476 2.826zM515.774 549.020c26.952-9.612 51.452-31.664 64.264-57.864 30.348-62.382-3.766-135.888-72.562-156.242-15.264-4.524-43.346-4.524-58.238 0-39.202 11.686-69.924 44.298-79.158 84.062-13.57 57.672 21.864 116.476 80.1 132.874 15.082 4.146 49.76 2.64 65.596-2.828zM839.196 591.618c-57.862-11.5-99.138-48.438-116.664-104.416-4.34-14.136-4.902-18.658-4.902-45.234 0-30.91 1.696-39.768 10.934-61.064 16.774-38.262 52.206-68.794 95.554-82.552 19.976-6.41 55.034-7.354 76.706-2.072 88.586 21.106 138.906 111.010 109.884 196.39-16.020 46.932-53.716 82.178-102.716 95.934-18.284 5.090-50.702 6.598-68.798 3.018zM894.606 551.848c29.402-6.976 59.184-30.536 72.562-57.486 9.238-18.848 12.442-31.666 12.442-50.89 0-28.836-9.426-53.528-28.456-74.26-14.328-15.456-28.652-24.876-48.82-32.040-13.566-4.712-18.848-5.462-34.862-5.654-31.856 0-54.848 9.426-77.278 31.854-14.32 14.134-24.504 31.476-30.344 50.884-5.090 16.778-4.524 46.934 0.946 63.144 12.626 36.188 40.706 63.516 76.516 73.694 14.324 4.144 41.278 4.524 57.298 0.754zM668.25 585.208l-18.472-0.562v-137.024c0-150.592 0.192-147.2-11.496-170.384-3.394-6.594-11.308-17.338-17.902-24.312-6.598-6.784-12.066-13.002-12.066-13.758 0-2.26 22.616-33.168 24.126-32.982 4.148 0.188 33.362 41.462 42.598 59.936 13.192 26.39 12.442 16.020 12.062 175.47l-0.562 144.184-18.284-0.568z" />
<glyph unicode="&#xe61d;" d="M124.278 573.472v-41.972l-3.124 0.592c-19.258 3.376-39.778 2.024-57.26-3.8-38.68-12.922-60.384-47.206-58.44-92.39 0.93-20.268 4.984-34.202 13.766-47.376 12.498-18.834 32.768-30.064 62.41-34.708 21.786-3.462 66.124-1.014 96.106 5.318l2.278 0.51v255.716h-55.738v-41.888zM120.312 487.838l3.968-1.012v-89.096l-5.66-0.508c-22.040-2.11-36.564 1.61-45.856 11.826-7.26 7.938-10.978 19.256-10.978 33.188 0 24.658 11.736 41.38 32.428 46.11 5.996 1.348 20.016 1.096 26.098-0.508zM212.952 587.072v-28.294h55.738l-0.168 28.12-0.25 28.042-27.618 0.25-27.7 0.168v-28.288zM364.12 533.778c-19.678-1.436-40.284-6.5-57.596-14.104l-4.896-2.196v-21.28c0-16.638 0.252-21.114 1.096-20.776 29.812 12.754 44.59 16.302 65.366 15.71 8.782-0.254 10.642-0.592 12.666-2.11 4.056-2.956 5.318-6.588 5.318-15.288 0-4.306-0.166-7.854-0.42-7.854-2.448 0-18.916-2.11-26.772-3.464-40.452-6.754-61.396-20.606-66.972-43.992-1.604-7.012-1.604-23.9 0-30.91 2.704-11.318 8.446-19.764 17.568-25.592 18.918-12.242 47.46-13.51 122.032-5.32l5.238 0.592v63.424c0 34.878-0.426 66.884-0.846 71.106-2.536 23.73-13.85 35.636-38.596 40.368-6.928 1.268-25.252 2.196-33.19 1.688zM388.612 411.074v-18.496l-7.35-1.098c-11.486-1.688-26.854-1.52-31.666 0.338-8.786 3.38-12.248 13.262-7.77 21.874 2.448 4.732 8.444 8.614 17.396 11.236 4.394 1.264 23.224 4.386 27.53 4.558l1.858 0.086v-18.496zM538.094 533.696c-20.018-0.846-49.912-5.656-71.11-11.316l-3.208-0.846v-167.13h55.738l0.17 65.706 0.256 65.616 5.906 1.606c4.226 1.098 9.12 1.604 17.314 1.688 10.308 0.084 11.826-0.084 15.88-1.942 5.486-2.448 8.952-6.334 10.894-12.076 1.35-4.052 1.52-9.712 1.77-62.488l0.254-58.106h54.894l-0.338 66.044c-0.248 59.366-0.422 66.716-1.686 71.528-2.534 9.544-6.338 15.962-13.26 22.972-10.812 10.894-25.336 16.554-47.548 18.41-10.304 0.844-13.258 0.928-25.926 0.336zM909.172 533.020c-32.508-5.912-55.822-25.42-65.616-55.148-4.644-13.934-5.912-23.814-5.406-41.462 0.344-10.558 0.93-16.976 2.114-22.13 6.926-29.472 25.252-50.16 52.61-59.448 23.394-8.024 55.656-6.676 76.936 3.208 27.196 12.494 43.832 36.988 47.884 70.264 4.73 38.504-8.024 73.298-33.020 90.526-10.89 7.518-19.59 11.064-33.864 13.85-9.798 1.944-32.092 2.112-41.636 0.34zM940.25 487.838c8.956-3.294 15.706-11.99 19.426-24.912 1.688-5.828 1.946-8.698 1.946-20.69 0-11.908-0.256-14.862-1.946-20.52-3.72-13.006-9.374-20.606-18.578-24.912-4.14-1.942-5.916-2.278-12.838-2.278-6.84 0-8.698 0.338-12.668 2.196-9.12 4.226-14.606 11.062-18.408 22.548-2.87 8.784-3.634 29.132-1.52 39.52 2.534 12.080 7.596 20.86 15.284 26.096 8.192 5.658 19.17 6.758 29.302 2.956zM750.488 532.936c-22.212-2.366-38.848-6.418-53.37-13.092-34.63-15.876-52.616-44.76-52.616-84.364 0-38.85 17.738-66.97 48.986-77.866 17.734-6.162 41.634-6.416 58.52-0.588 4.14 1.434 7.602 2.446 7.77 2.278 0.68-0.676-1.266-16.636-2.616-20.948-4.308-14.438-12.924-22.634-28.206-26.768-7.854-2.198-34.542-2.198-44.758 0-8.952 1.856-21.37 5.91-29.308 9.544l-6.166 2.788v-51.18l9.966-3.042c16.89-5.152 31.164-7.346 49.408-7.346 41.634-0.082 71.274 12.752 88.67 38.344 7.77 11.484 12.754 26.092 15.12 44.672 1.178 9.462 1.434 107.082 0.338 129.712l-0.592 12.082 6.504-0.254 6.586-0.34 9.206 19.254c5.066 10.558 9.038 19.426 8.866 19.678-0.758 0.676-17.564 3.716-30.568 5.488-9.462 1.27-18.666 1.774-35.558 2.028-12.498 0.084-24.318 0.084-26.18-0.084zM758.85 475.846c0.254-7.6 0.678-27.53 0.928-44.334l0.508-30.566-3.208-0.852c-12.496-3.376-24.828-3.376-33.442-0.168-14.354 5.49-21.62 17.818-22.38 37.832-0.59 16.72 2.62 27.448 10.98 36.23 9.206 9.714 23.39 14.948 41.72 15.454l4.394 0.084 0.506-13.68zM212.952 465.712c0-95.682-1.182-108.18-11.572-128.446-6.5-12.67-18.492-23.226-36.478-32.264-4.562-2.28-5.998-3.294-5.068-3.798 0.676-0.422 12.246-5.912 25.676-12.246l24.49-11.572 5.152 2.62c32.77 16.976 47.632 40.702 51.856 83.27 0.59 5.572 1.182 40.452 1.434 88.078l0.508 78.712h-55.992v-64.354z" />
<glyph unicode="&#xe61e;" d="M10.238 467.014v-167.926h279.536v-56.31h223.23v56.31h500.756v335.85h-1003.524v-167.924zM289.774 467.014v-111.616h-56.308v166.92h-54.298v-166.92h-114.632v223.23h225.24v-111.614zM568.914 466.81l-0.604-111.616-109.606 0.4v-56.508h-114.63v279.538h225.24l-0.4-111.816zM959.462 467.014v-111.616h-56.314v166.92h-56.312v-167.928l-56.308 1.206v166.722h-54.298v-166.92h-112.62v223.23h335.852v-111.614zM458.704 467.014v-55.308h52.288v110.61h-52.288v-55.302z" />
<glyph unicode="&#xe61f;" d="M448.186 595.176l-14.636-2.152v-238.464h38.738v120.092l6.672 5.596c3.662 3.228 9.686 7.316 13.346 9.254 9.474 4.732 27.334 4.732 34.648-0.216 11.192-7.104 12.054-13.13 12.054-76.618v-58.11h40.89v57.678c0 62.414-1.722 75.326-11.62 89.962-17 25.18-57.034 29.7-84.798 9.472-4.948-3.442-9.472-6.456-10.114-6.456-0.434 0-1.292 20.66-1.508 45.842-0.646 52.298 1.722 47.778-23.674 44.12zM948.364 569.996c-5.166-0.86-10.116-2.798-10.98-4.306-1.076-1.506-3.014-10.976-4.302-21.306-3.658-26.042-3.876-26.26-10.976-26.26-12.48 0-16.574-3.226-20.234-15.71-1.932-6.456-3.442-12.484-3.442-13.13s6.89-1.292 15.066-1.292h15.064v-46.272c0-25.396 1.076-51.002 2.366-57.246 6.028-27.98 39.816-40.034 72.314-25.61l9.042 4.086-3.23 11.41c-1.938 6.238-3.874 11.836-4.308 12.268-0.428 0.644-6.028-0.216-12.052-1.726-10.12-2.15-11.838-2.15-16.788 1.51l-5.376 4.092-0.646 48.848-0.436 48.642h38.742v32.284h-38.524l-0.646 25.396c-0.644 28.624 0 27.764-20.658 24.32zM11.718 508.444v-16.144h101.154v32.284h-101.154v-16.142zM149.456 508.444v-16.144h32.284v32.284h-32.284v-16.142zM309.584 522.216c-4.734-1.076-13.988-5.166-20.446-9.038-9.252-5.38-12.698-9.472-17.862-19.37-12.052-23.462-7.318-55.526 10.546-69.73l6.888-5.596-7.964-7.962c-9.902-9.898-12.698-21.52-7.748-32.926 1.724-4.304 4.95-8.826 7.102-10.332 3.874-2.37 3.228-3.226-7.102-13.778-12.484-12.48-15.282-20.23-12.916-36.37 2.154-13.34 13.13-25.61 28.842-31.634 10.332-4.092 16.572-4.952 38.094-4.952 56.82-0.212 89.104 21.524 89.318 60.26 0 16.144-5.382 25.4-19.156 32.284-11.834 5.812-19.152 7.104-56.816 9.472-16.786 1.072-31.206 3.012-32.928 4.518-1.722 1.292-3.014 5.166-3.014 8.394 0 10.114 5.166 12.27 30.13 13.342 32.716 1.292 49.932 9.9 60.908 30.778 3.658 6.884 4.52 12.050 4.302 25.824-0.214 9.47-0.644 19.586-1.074 22.598-0.644 4.736 0.43 5.596 8.608 7.534l9.254 1.938-0.646 12.912c-0.858 16.358-3.228 17.22-22.382 7.748-12.482-6.026-13.988-6.456-18.51-3.444-12.914 8.394-44.978 12.052-65.428 7.534zM348.108 493.592c11.406-4.734 15.282-10.762 16.142-26.042 0.862-12.912 0.646-13.772-6.67-21.736-7.104-7.748-8.178-8.178-22.168-9.038-17.648-0.864-27.332 3.872-32.282 15.71-11.838 28.624 15.28 53.806 44.98 41.106zM372.214 349.392c15.496-6.67 10.976-25.606-8.608-35.722-9.040-4.52-13.56-5.38-30.132-5.38-22.812 0-32.068 3.874-36.586 14.848-3.872 9.256-0.862 20.88 7.102 27.336 5.596 4.302 7.318 4.52 33.358 3.226 15.928-0.644 30.562-2.58 34.866-4.304zM653.078 521.14c-35.73-9.47-56.172-39.6-56.172-82.646 0-23.242 4.304-38.948 15.278-54.88 27.548-40.028 101.798-41.104 131.932-1.936 21.948 28.626 22.812 80.708 1.722 111.486-17.648 25.608-57.034 37.446-92.76 27.976zM691.602 492.3c18.294-5.166 28.192-24.106 28.192-53.808 0-9.038-1.508-21.304-3.23-27.114-10.972-37.018-62.63-38.094-75.11-1.508-4.52 13.126-4.52 44.12-0.22 57.032 7.322 21.306 28.196 31.852 50.366 25.394zM814.492 521.354c-25.826-7.316-39.17-23.458-39.17-46.916 0-26.258 10.978-38.092 45.416-48.854 23.886-7.53 31.634-11.838 34.86-20.018 3.662-8.61-0.86-16.57-10.976-20.23-8.822-3.226-31.854-1.938-46.916 2.794-16.144 4.734-17.216 4.52-21.094-9.252-3.446-11.62-3.446-12.27 0.43-15.064 13.988-10.12 58.972-13.778 80.278-6.242 22.384 7.748 36.588 26.472 36.802 47.992 0 25.182-10.76 36.372-46.27 47.996-8.18 2.798-18.726 6.672-23.030 8.824-13.126 6.672-16.144 17.002-7.53 25.396 7.318 6.672 23.028 7.964 43.26 3.442 9.256-1.938 17.866-3.23 19.154-2.584 1.506 0.646 4.090 6.026 5.596 12.27 2.802 10.546 2.582 11.622-1.076 14.42-10.974 7.962-50.36 11.406-69.732 6.024zM11.718 439.574v-16.142h170.026v32.282h-170.026v-16.14zM11.718 371.776v-15.064h66.718v30.134h-66.718v-15.068zM115.022 371.776v-15.064h66.718v30.134h-66.718v-15.068z" />
<glyph unicode="&#xe620;" d="M10.27 198.024v160.56h160.55v160.556h160.554v160.552h160.556v-481.668zM532.068 679.692c266.020 0 481.662-215.65 481.662-481.652h-481.662v481.652z" />
<glyph unicode="&#xe621;" d="M713.826 787.98c-39.226-9.988-104.124-25.676-144.062-36.38l-73.454-18.538-21.394-37.796-21.392-38.512h-89.148l-213.948-213.948 213.948-213.942h87.716l22.11-38.512c12.128-21.402 27.102-40.646 34.232-42.798 12.126-3.558 104.116-28.528 226.784-61.328 30.662-7.846 56.334-13.552 57.058-12.836 1.424 1.424 12.12 39.23 24.24 84.146 12.126 44.934 29.956 110.544 39.226 145.496l17.11 62.75-20.674 35.666c-11.414 19.252-20.684 37.788-20.684 41.356 0 3.574 9.27 22.826 21.394 42.086l20.68 35.646-14.976 52.070c-29.24 104.108-55.626 188.986-64.184 210.38l-9.27 21.396-71.316-16.404zM680.302 692.42c-1.418-2.864-29.23-52.784-62.754-109.832l-60.62-104.116h-127.654c-70.598 0-126.228 1.422-124.802 3.558 2.138 1.436 38.512 39.938 79.872 84.868 64.186 68.464 81.302 82.020 103.408 86.292 14.264 2.144 58.482 13.558 97.7 24.25 78.448 21.398 98.416 24.25 94.848 14.982zM759.466 633.934c3.564-12.838 17.116-61.326 29.952-107.682l22.818-84.868-19.962-72.030c-10.702-39.936-24.252-89.86-29.958-110.544-5.706-21.386-13.548-35.658-16.398-32.092-2.856 2.85-32.094 51.352-64.186 107.688-39.226 68.466-57.054 105.538-53.486 114.1 8.558 23.534 114.102 207.544 119.096 208.246 2.14 0 7.846-10.692 12.124-22.82zM587.598 350.098c75.592-126.944 96.27-164.742 92.702-167.59-1.418-1.424-51.342 9.984-110.534 24.956l-107.688 28.524-77.734 79.158c-42.074 43.514-78.45 82.014-79.156 85.582-1.432 4.288 46.356 5.712 124.086 4.996l126.942-2.144 31.384-53.484z" />
<glyph unicode="&#xe622;" d="M780.088 476.91l-5.858 10.436c0.232 74.968-34.030 105.522-73.978 128.75 12.082 3.232 24.568 5.896 27.99 21.312 20.774 5.394 25.12 15.16 27.204 25.498 5.428 3.682 23.616 14.006 21.708 31.756 10.182 7.134 15.856 16.292 12.972 29.26 10.938 12.114 13.814 22.126 9.17 31.356 13.13 16.562 7.306 25.146 1.704 33.84 9.832 18.11 1.158 37.534-26.348 34.28-10.932 16.32-34.78 12.61-38.468 12.536-4.124 5.236-9.574 9.724-26.33 7.55-10.858 9.826-22.992 8.15-35.514 3.324-14.862 11.728-24.702 2.328-35.94-1.228-17.996 5.882-22.114-2.174-30.954-5.454-19.628 4.146-25.596-4.886-35.004-14.416l-10.946 0.22c-29.606-17.448-44.31-52.972-49.524-71.236-5.214 18.264-19.888 53.792-49.49 71.236l-10.946-0.22c-9.42 9.53-15.382 18.562-35.010 14.416-8.846 3.28-12.954 11.336-30.958 5.454-7.376 2.334-14.156 7.186-22.142 6.934l0.012-0.002c-4.18-0.128-8.688-1.674-13.8-5.706-12.516 4.826-24.654 6.504-35.508-3.324-16.762 2.174-22.21-2.314-26.334-7.55-3.676 0.078-27.534 3.782-38.472-12.534-27.49 3.25-36.176-16.168-26.334-34.28-5.614-8.694-11.43-17.284 1.702-33.848-4.648-9.226-1.766-19.242 9.17-31.356-2.884-12.97 2.792-22.124 12.972-29.262-1.908-17.75 16.278-28.074 21.708-31.75 2.084-10.346 6.432-20.104 27.204-25.504 3.422-15.416 15.904-18.076 27.994-21.312-39.952-23.222-74.214-53.778-73.98-128.752l-5.852-10.434c-45.808-27.858-87.026-117.396-22.578-190.172 4.208-22.784 11.274-39.144 17.556-57.256 9.404-72.972 70.764-107.146 86.95-111.188 23.718-18.062 48.974-35.204 83.156-47.214 32.22-33.232 67.128-45.896 102.228-45.874 0.516 0 1.038-0.004 1.558 0 35.094-0.024 70 12.64 102.224 45.874 34.182 12.012 59.44 29.152 83.156 47.214 16.182 4.042 77.548 38.214 86.95 111.188 6.286 18.112 13.35 34.472 17.558 57.256 64.452 72.782 23.236 162.322-22.578 190.182zM738.66 489.722c-2.388-30.202-157.39 105.152-130.632 109.644 72.632 12.268 133.070-30.884 130.632-109.644zM568.49 805.228c1.342-6.784 2.86-11.074 4.594-12.334 8.62 9.376 15.662 18.98 26.754 28.004 0.038-5.302-2.638-11.050 3.972-15.26 5.946 8.126 13.986 15.376 24.658 21.526-5.14-9-0.882-11.734 1.88-15.46 8.154 7.096 15.9 14.284 30.93 19.85-4.11-5.082-9.85-10.042-3.76-15.88 8.394 5.322 16.842 10.634 36.784 14.418-4.492-5.082-13.788-10.166-8.15-15.256 10.54 4.088 22.202 7.056 35.108 8.782-6.178-5.16-11.334-10.216-6.27-14.212 11.28 3.522 26.82 8.268 42.004 4.178l-9.614-9.822c-1.064-1.312 22.494-1.024 38.042-1.252-5.678-8.006-11.458-15.728-14.838-29.468 1.542-1.586 9.248-0.708 16.508 0-7.446-15.924-20.38-19.94-23.408-26.754 4.556-3.498 10.862-2.586 17.768-0.208-5.358-11.216-16.61-18.902-25.496-28.004 2.25-1.62 6.176-2.582 15.462-1.462-8.21-8.856-18.128-16.956-29.88-24.238 2.080-2.446 9.238-2.344 15.88-2.508-10.646-10.582-24.354-16.066-37.206-22.99 6.404-4.446 10.98-3.404 15.884-3.348-9.080-7.576-24.534-11.518-38.87-16.088 2.726-4.304 5.452-5.478 11.286-6.69-15.18-8.528-36.92-4.626-43.052-8.982 1.476-4.288 5.656-7.080 10.66-9.41-24.436-1.436-91.27 0.906-104.078 52.252 25.012 27.898 70.668 60.642 149.182 101.132-61.094-20.756-116.212-48.428-162.35-86.506-54.248 25.64-16.848 90.31 9.616 115.99zM511.678 620.046v0.004c38.468 0.42 86.094-28.706 85.906-56.15-0.166-24.218-33.452-43.826-85.608-43.45-51.078 0.606-85.476 24.638-85.356 48.106 0.104 19.316 41.706 52.618 85.058 51.49zM317.252 640.75c5.828 1.21 8.558 2.384 11.286 6.69-14.342 4.57-29.788 8.512-38.872 16.088 4.906-0.056 9.482-1.098 15.882 3.348-12.844 6.924-26.55 12.408-37.198 22.99 6.638 0.164 13.8 0.062 15.882 2.508-11.756 7.284-21.676 15.382-29.886 24.238 9.294-1.12 13.218-0.156 15.466 1.462-8.886 9.102-20.134 16.788-25.498 28.004 6.9-2.376 13.214-3.29 17.762 0.208-3.018 6.814-15.958 10.83-23.402 26.754 7.26-0.708 14.966-1.586 16.508 0-3.374 13.734-9.158 21.458-14.834 29.46 15.546 0.23 39.104-0.058 38.036 1.254l-9.612 9.822c15.184 4.090 30.724-0.658 42.004-4.178 5.068 3.998-0.090 9.050-6.268 14.208 12.908-1.724 24.568-4.686 35.112-8.78 5.63 5.090-3.658 10.176-8.154 15.256 19.94-3.78 28.388-9.096 36.782-14.418 6.094 5.836 0.352 10.798-3.758 15.882 15.034-5.57 22.78-12.754 30.93-19.854 2.764 3.73 7.024 6.462 1.882 15.462 10.676-6.15 18.71-13.4 24.66-21.526 6.606 4.21 3.938 9.96 3.972 15.26 11.094-9.022 18.132-18.626 26.75-28.002 1.738 1.264 3.254 5.544 4.598 12.33 26.464-25.676 63.862-90.344 9.612-115.99-46.142 38.056-101.244 65.72-162.3 86.478 78.486-40.47 124.124-73.212 149.126-101.1-12.806-51.346-79.638-53.688-104.076-52.252 5.004 2.33 9.176 5.124 10.66 9.41-6.134 4.36-27.874 0.46-43.052 8.988zM407.346 601.68c26.758-4.492-128.242-139.842-130.632-109.654-2.44 78.754 57.992 121.918 130.632 109.654zM244.61 300.088c-37.668 30.292-49.802 119.024 20.038 158.904 42.082 11.282 14.204-174.118-20.038-158.904zM391.444 141.278c-21.246-12.814-72.838-7.536-109.508 45.146-24.73 44.204-21.546 89.184-4.178 102.398 25.966 15.822 66.088-5.546 96.968-41.376 26.91-32.422 39.172-89.374 16.718-106.168zM349.698 334.628c-38.982 25.54-46.010 83.43-15.694 129.298 30.314 45.878 86.49 62.364 125.47 36.822 38.984-25.542 46.012-83.428 15.698-129.304-30.312-45.87-86.488-62.358-125.474-36.816zM511.82 50.992c-46.73-2.016-92.558 38.276-91.954 52.242-0.7 20.478 56.898 36.468 94.458 35.532 37.796 1.648 88.516-12.178 88.61-30.516 0.628-17.806-45.99-58.038-91.114-57.258zM607.992 252.922c0.28-47.914-41.624-86.962-93.588-87.21-51.958-0.252-94.298 38.382-94.57 86.294 0 0.302 0 0.61 0 0.916-0.276 47.91 41.624 86.956 93.584 87.212 51.956 0.248 94.302-38.388 94.574-86.296 0.004-0.306 0.004-0.614 0-0.916zM548.998 376.068c-30.314 45.874-23.288 103.764 15.696 129.3 38.984 25.542 95.16 9.060 125.474-36.816 30.31-45.876 23.284-103.764-15.698-129.298-38.984-25.542-95.158-9.056-125.472 36.814zM739.546 183.878c-40.268-55.876-94.782-58.058-115.088-42.49-21.242 20.038-5.030 82.23 24.086 116.336l-0.004 0.008c33.314 37.618 68.936 62.182 93.746 42.984 16.706-16.64 26.504-79.314-2.74-116.838zM771.066 302.392c-34.246-15.218-62.13 170.188-20.036 158.912 69.838-39.878 57.702-128.614 20.036-158.912z" />
<glyph unicode="&#xe623;" d="M773.668 456.514c-47.382 0-98.464 0-98.464 0l26.84 124.716c0 0 69.31 0 94.572 0 61.358 0 75.882-30.296 75.882-54.272 0-33.922-21.842-70.444-98.83-70.444zM835.852 349.27c0-33.918-21.836-70.44-98.828-70.44-47.38 0-98.464 0-98.464 0l26.84 124.806c0 0 69.312 0 94.482 0 61.348 0.002 75.97-30.482 75.97-54.366zM544.45 568.126c-47.382 0-98.37 0-98.37 0l26.834 124.714c0 0 69.218 0 94.388 0 61.446 0 76.066-30.294 76.066-54.274 0.006-33.916-21.93-70.44-98.918-70.44zM609.13 450.848c0-33.924-21.836-70.446-98.828-70.446-47.336 0-98.372 0-98.372 0l26.79 124.624c0 0 69.312 0 94.53 0 61.356 0 75.88-30.204 75.88-54.178zM572.578 255.316c0-34.008-21.838-70.44-98.644-70.44-47.474 0-98.6 0-98.6 0l26.834 124.808c0 0 69.314 0 94.576 0 61.308 0 75.834-30.386 75.834-54.368zM280.99 568.126c-47.334 0-98.322 0-98.322 0l26.698 124.714c0 0 69.312 0 94.576 0 61.354 0 76.020-30.294 76.020-54.274-0.004-33.916-21.982-70.44-98.972-70.44zM345.812 450.848c0-33.924-21.976-70.446-98.786-70.446-47.518 0-98.6 0-98.6 0l26.884 124.624c0 0 69.36 0 94.484 0 61.398 0 76.018-30.204 76.018-54.178z" />
<glyph unicode="&#xe624;" d="M493.75 850.37c-3.884-0.484-22.578-2.672-41.272-4.854-50.254-5.828-93.466-20.152-124.786-41.516-10.194-7.040-10.68-7.284-18.208-3.398-10.926 5.582-39.812 6.552-54.138 1.698-19.908-6.552-33.018-21.364-36.902-41.754-2.912-15.298 0.244-33.26 8.254-45.156 4.854-7.284 22.576-20.15 33.26-24.278 0.728-0.486-0.726-15.536-3.4-33.502-4.128-27.432-4.61-40.784-3.64-81.328 0.728-26.706 2.914-58.994 4.854-71.618 2.186-12.626 4.612-31.318 5.342-41.514l1.7-18.452-10.438-1.7c-16.512-2.428-41.758-16.020-44.43-23.544-3.156-8.984-0.242-17.48 9.228-27.678 9.71-10.198 15.534-9.952 31.802 0.972l9.71 6.552v-111.676c0-110.946 0-112.158 5.584-125.512 7.284-18.206 22.334-41.028 36.902-56.808l12.14-12.626-12.14-7.77c-13.352-8.738-24.276-24.518-24.276-35.442 0-4.616 2.67-9.226 8.738-14.808 7.284-7.044 10.44-8.256 20.394-8.256 10.682 0 13.352 1.212 24.762 10.924 7.038 6.070 17.48 13.354 23.062 16.268l10.44 5.342 22.334-7.528c37.87-12.866 60.936-16.268 109.976-16.024 62.148 0.244 113.616 9.226 151.49 26.462 7.038 3.156 14.808 5.826 16.748 5.826 2.188 0 12.384-8.984 22.822-19.664 18.692-19.666 18.936-19.906 28.89-18.452 14.326 1.942 24.038 11.898 24.038 24.278 0 13.354-5.828 24.278-19.91 36.904l-11.894 10.682 11.406 15.294c21.61 29.376 33.99 61.664 42.486 110.706 4.856 29.376 5.826 85.456 2.672 148.090-0.972 16.266-1.456 29.62-1.456 29.62 0.244 0 5.34-2.67 10.924-6.070 14.084-8.010 22.578-7.77 30.346 0.486 7.044 7.524 8.984 13.838 7.77 25.248-0.972 10.438-10.438 16.99-32.774 23.060-8.982 2.188-16.992 4.614-17.722 5.342-0.73 0.486-1.942 44.186-2.914 97.108-1.698 99.050-1.698 100.51-13.352 150.52-0.726 3.156-0.242 5.342 1.698 5.342 6.068 0 24.518 15.294 30.104 25.006 11.894 19.908 10.438 45.398-3.64 64.82-14.568 20.15-46.126 27.19-75.99 17.236l-15.294-5.098-12.38 8.012c-17.238 11.652-46.37 23.308-72.104 28.892-21.12 4.61-88.852 8.010-106.818 5.342zM587.456 838.474c79.876-13.838 122.844-51.226 148.092-128.184 15.052-45.884 16.994-66.034 19.18-197.13 1.212-65.308 3.4-141.292 4.856-168.724s1.942-60.692 1.212-74.048c-3.154-48.312-13.838-92.98-29.374-122.6-10.442-19.906-30.592-45.152-37.874-47.338-3.156-0.972-9.952-5.83-15.294-10.926-27.92-26.462-88.37-42.73-167.514-45.4-48.312-1.456-76.716 1.942-114.346 13.84-21.12 6.798-25.25 9.226-34.96 19.178-12.14 12.87-23.306 19.666-32.532 19.666-12.138 0-44.668 42.244-54.866 70.89-7.284 20.634-8.498 72.346-4.856 190.092l3.154 102.932-5.824 45.64c-15.296 119.928-0.244 213.154 43.7 267.776 19.42 24.036 49.524 41.514 93.224 53.896 42.972 12.14 142.022 17.964 184.020 10.438zM754.972 803.030c30.59-15.538 32.044-63.85 2.672-82.544-6.068-3.886-11.652-7.042-12.384-7.042-0.972 0-3.884 6.798-6.798 14.808l-5.582 15.052 6.312 7.284c4.614 5.342 5.826 8.982 4.614 13.596-2.914 11.654-9.47 15.052-23.064 11.894-5.096-1.214-7.524 0.486-16.508 11.896-5.826 7.284-10.198 13.594-9.712 14.322 0.486 0.486 7.038 2.428 14.324 4.612 15.778 4.37 33.018 2.914 46.126-3.882zM295.648 795.748c6.798-1.458 12.868-3.644 13.594-4.614 0.728-1.212-3.4-8.254-8.984-15.538-9.952-12.866-10.924-13.352-19.178-12.14-7.526 1.214-9.468 0.486-13.838-5.098-6.798-8.738-6.798-13.838 0.486-22.092l5.584-6.798-4.614-14.080c-2.668-7.772-6.068-14.082-7.524-14.082-4.856 0-20.396 10.438-25.49 16.994-20.636 27.19-7.282 67.734 25.49 76.714 14.808 3.884 19.422 4.128 34.474 0.73zM789.688 440.814c16.752-6.312 24.762-15.052 22.334-24.52l-1.456-6.068-8.256 4.856c-4.856 2.912-8.98 3.884-9.712 2.428-0.97-1.216 0.486-2.912 3.16-3.884 7.766-2.428 11.164-7.768 7.524-12.14-4.856-5.826-15.294-4.37-27.434 3.884l-11.41 7.524v16.752c0 15.776 0.242 16.748 5.584 16.506 2.914 0 11.896-2.428 19.664-5.342zM264.33 431.348c0-19.664-2.668-26.22-13.354-33.502-14.808-10.198-21.364-11.412-28.162-4.616-5.098 5.1-5.342 5.586-1.212 8.014 9.952 6.070 11.894 8.012 9.466 9.47-1.456 0.972-5.342-0.73-8.982-3.398-5.338-4.13-6.554-4.374-7.766-1.216-4.372 11.41 4.126 20.876 25.974 28.402 19.908 6.798 24.036 6.312 24.036-3.154zM717.586 89.766c12.866-9.466 24.034-31.074 20.876-40.538-3.396-10.198-6.312-9.23-12.866 4.61-3.4 6.798-7.284 12.87-8.738 13.11-1.458 0.486 0.482-5.584 4.61-13.596 3.886-8.010 6.312-15.534 5.34-16.994-0.726-1.456-5.096-2.668-9.708-2.668-6.798 0-10.198 2.426-23.064 16.992-8.010 9.226-16.992 17.48-19.662 18.206-7.284 2.428-5.586 7.042 6.312 17.966 13.596 12.38 22.82 13.108 36.902 2.91zM341.774 88.31c3.884-1.942 10.926-8.256 15.78-13.838l8.98-10.198-9.466-4.37c-5.1-2.428-15.78-9.952-23.79-16.75-16.266-13.838-22.334-16.024-32.532-11.896-6.31 2.67-6.798 3.4-4.614 9.226 1.458 3.64 5.342 10.196 8.74 14.566 3.396 4.366 5.584 8.74 4.856 9.466-1.94 1.698-13.11-11.168-16.508-19.178-3.4-8.498-6.556-8.74-8.498-0.73-3.4 13.838 6.31 28.402 26.704 40.058 13.836 8.012 20.392 8.984 30.346 3.64zM581.634 808.126c-24.52-6.312-45.884-23.792-55.838-45.884-7.528-16.264-7.042-43.454 0.73-59.722 8.256-16.994 25.976-33.746 42.972-40.058 18.934-7.042 50.008-6.068 66.274 2.188 26.948 13.836 39.33 32.774 40.784 63.848 0.972 18.45 0.246 22.336-4.856 33.986-8.496 18.45-19.42 29.862-36.658 38.358-16.75 8.012-38.114 10.924-53.408 7.284zM629.216 798.902c41.030-18.208 56.566-68.704 33.020-106.092-22.338-35.202-79.874-41.758-112.648-12.868-28.16 24.764-33.016 62.394-12.14 92.982 19.908 29.132 59.48 40.298 91.766 25.976zM540.602 745.248c-19.664-17.478-0.486-48.554 25.734-41.27 9.712 2.672 18.448 13.838 18.448 23.548 0 22.094-27.188 33.018-44.184 17.722zM383.288 798.658c-19.422-6.068-38.602-22.092-48.068-40.058-5.584-10.438-6.556-15.534-6.556-33.016 0-16.994 0.972-22.822 5.826-32.534 23.062-46.854 85.454-58.748 124.058-24.032 18.692 16.75 25.49 31.314 25.49 55.352 0 16.508-0.974 21.606-6.798 33.26-13.352 27.19-40.3 43.456-71.618 42.972-8.982 0-18.936-0.972-22.334-1.944zM442.040 787.978c53.166-31.074 50.254-101.476-5.342-128.668-16.996-8.256-45.156-7.528-63.608 1.456-55.108 27.19-54.38 102.936 1.458 129.64 10.926 5.096 15.050 5.826 34.23 5.096 18.694-0.726 23.79-1.942 33.262-7.524zM357.798 745.734c-7.284-1.698-17.48-12.38-18.936-19.664-1.7-8.498 3.396-20.636 10.68-25.736 3.158-2.182 10.198-3.882 15.782-3.882 28.162 0 35.202 36.656 9.226 47.582-8.496 3.64-8.74 3.64-16.752 1.698zM494.476 679.7c-12.624-2.67-21.362-8.98-23.062-17.478-0.728-4.614-3.882-8.498-8.010-10.682-15.296-8.012-23.306-25.006-17.966-38.846 2.186-5.096 13.596-10.924 22.334-10.924h7.040l-2.186-12.626c-2.67-16.022-0.728-27.432 5.584-33.744s15.052-5.828 23.062 1.214l6.798 5.584 4.126-4.856c5.1-6.556 19.908-6.556 26.948 0 4.37 3.884 4.856 6.556 3.884 24.52l-0.97 19.908h7.524c27.678 0 27.192 36.174-0.73 49.77-6.794 3.154-10.196 6.31-10.196 9.712-0.242 7.040-5.342 12.866-15.294 16.994-9.468 3.884-14.564 4.126-28.89 1.456zM545.702 647.898c13.11-6.556 19.662-15.538 19.662-27.19 0-8.498-0.972-9.952-8.010-12.868-8.498-3.64-18.936-2.184-38.844 4.856-10.924 3.884-12.138 3.884-28.164-0.972-28.888-8.738-41.512-5.338-41.998 11.168-0.242 9.712 3.886 16.268 14.080 22.82 8.498 5.1 8.982 5.1 17.48 0.972 4.856-2.188 14.324-4.614 21.122-5.342 9.952-0.97 14.080 0 23.062 4.856 6.070 3.4 11.166 6.314 11.652 6.314 0.244 0.24 4.856-1.944 9.956-4.614zM505.644 589.146c-1.942-25.734-3.642-30.346-11.896-32.53-14.568-3.642-19.908 6.312-16.752 29.86l2.186 16.51 12.14 4.128c6.798 2.182 12.866 4.128 13.838 4.37 0.97 0 1.214-10.198 0.486-22.336zM524.338 606.384c12.14-4.126 14.324-8.254 14.324-26.948 0-14.566-0.73-16.75-5.828-20.15-8.252-5.342-18.206-2.428-19.904 5.826-0.73 3.396-1.942 8.010-2.428 9.952-1.7 4.856 1.698 33.988 3.884 33.988 0.972 0 5.342-1.214 9.952-2.67z" />
<glyph unicode="&#xe625;" d="M688 732.192c-64.738 0-117.332-52.566-117.332-117.334 0-43.286 23.716-80.724 58.666-101.092v-16.242c0 0 0-117.332-117.336-117.332-48.64 0-86.766-10.428-117.332-26.414v277.322c34.978 20.368 58.666 57.806 58.666 101.092 0 64.768-52.566 117.332-117.334 117.332s-117.332-52.564-117.332-117.332c0-43.286 23.692-80.724 58.666-101.092v-384.512c-34.976-20.34-58.666-57.75-58.666-101.064 0-64.738 52.564-117.332 117.332-117.332 64.77 0 117.334 52.594 117.334 117.332 0 30.71-12.088 58.438-31.398 79.408 17.074 20.968 44.832 37.926 90.064 37.926 232.836 0 234.668 234.666 234.668 234.666v16.242c34.948 20.368 58.668 57.806 58.668 101.092 0 64.768-52.594 117.334-117.334 117.334zM335.998 790.858c32.458 0 58.668-26.21 58.668-58.666s-26.21-58.668-58.668-58.668c-32.456 0-58.666 26.21-58.666 58.668 0.002 32.456 26.21 58.666 58.666 58.666zM335.998 86.86c-32.456 0-58.666 26.238-58.666 58.664 0 32.37 26.21 58.668 58.666 58.668 32.458 0 58.668-26.298 58.668-58.668 0-32.426-26.21-58.664-58.668-58.664zM688 556.192c-32.428 0-58.666 26.208-58.666 58.666s26.238 58.666 58.666 58.666 58.666-26.21 58.666-58.666c0-32.458-26.238-58.666-58.666-58.666z" />
<glyph unicode="&#xe626;" d="M293.422 794.046c-60.328 0-109.29-48.96-109.29-109.288 0-40.316 22.12-75.188 54.644-94.162v-358.152c-32.526-18.944-54.644-53.792-54.644-94.132 0-60.3 48.96-109.29 109.29-109.29 60.326 0 109.288 48.988 109.288 109.29 0 40.342-22.064 75.19-54.642 94.132v358.154c32.578 18.972 54.642 53.844 54.642 94.162-0.002 60.326-48.962 109.286-109.288 109.286zM293.422 83.668c-30.15 0-54.644 24.44-54.644 54.644 0 30.15 24.494 54.644 54.644 54.644 30.23 0 54.644-24.494 54.644-54.644 0-30.204-24.414-54.644-54.644-54.644zM293.422 630.112c-30.15 0-54.644 24.414-54.644 54.646s24.494 54.644 54.644 54.644c30.23 0 54.644-24.414 54.644-54.644s-24.414-54.646-54.644-54.646zM785.22 232.446v343.024c0 164.36-163.932 163.934-163.932 163.934h-54.644v109.288l-163.936-163.934 163.936-163.934v109.29c0 0 22.784 0 54.644 0 48.186 0 54.642-54.644 54.642-54.644v-343.024c-32.55-18.944-54.642-53.736-54.642-94.132 0-60.3 48.986-109.29 109.288-109.29s109.292 48.988 109.292 109.29c0 40.34-22.096 75.188-54.648 94.132zM730.576 83.668c-30.148 0-54.644 24.44-54.644 54.644 0 30.15 24.496 54.644 54.644 54.644 30.208 0 54.644-24.494 54.644-54.644 0-30.204-24.436-54.644-54.644-54.644z" />
<glyph unicode="&#xe627;" d="M745.872 497.324c-43.508 0-80.964-24.038-101.062-59.294-5.254 0.37-10.394 0.828-15.876 0.828-119.73 0-233.356 91.212-274.806 204.12 24.92 21.44 40.94 52.844 40.94 88.216 0 64.548-52.388 116.936-116.936 116.936s-116.936-52.388-116.936-116.936c0-43.136 23.612-80.452 58.468-100.75v-383.206c-34.858-20.27-58.468-57.552-58.468-100.718 0-64.52 52.386-116.934 116.936-116.934 64.546 0 116.936 52.414 116.936 116.934 0 43.166-23.612 80.45-58.468 100.718v210.374c76.882-81.332 183.054-135.69 292.336-135.69 5.824 0 10.622 0.398 15.876 0.57 20.214-35.114 57.668-59.036 101.062-59.036 64.52 0 116.934 52.414 116.934 116.932-0.004 64.55-52.418 116.936-116.936 116.936zM278.13 88.054c-32.26 0-58.466 26.15-58.466 58.466 0 32.26 26.208 58.466 58.466 58.466 32.346 0 58.466-26.208 58.466-58.466 0.002-32.316-26.12-58.466-58.466-58.466zM278.13 672.726c-32.26 0-58.466 26.122-58.466 58.468 0 32.344 26.208 58.466 58.466 58.466 32.346 0 58.466-26.122 58.466-58.466 0.002-32.346-26.12-58.468-58.466-58.468zM745.872 321.922c-32.262 0-58.468 26.15-58.468 58.466 0 32.346 26.208 58.468 58.468 58.468 32.312 0 58.464-26.124 58.464-58.468 0-32.316-26.152-58.466-58.464-58.466z" />
<glyph unicode="&#xe628;" d="M814.494 278.872v316.478c0 151.64-151.246 151.246-151.246 151.246h-50.416v100.832l-151.248-151.248 151.248-151.248v100.832c0 0 21.022 0 50.416 0 44.458 0 50.414-50.414 50.414-50.414v-316.478c-30.034-17.48-50.414-49.53-50.414-86.848 0-55.634 45.196-100.834 100.832-100.834 55.632 0 100.83 45.2 100.83 100.834 0 37.218-20.382 69.368-50.416 86.848zM764.080 141.608c-27.818 0-50.418 22.548-50.418 50.416 0 27.816 22.6 50.414 50.418 50.414 27.866 0 50.414-22.598 50.414-50.414 0-27.868-22.548-50.416-50.414-50.416zM209.506 598.82v-316.456c0-151.638 151.248-151.248 151.248-151.248h50.416v-100.83l151.244 151.248-151.244 151.248v-100.832c0 0-21.026 0-50.416 0-44.458 0-50.416 50.414-50.416 50.414v316.456c30.056 17.502 50.416 49.552 50.416 86.874 0 55.658-45.172 100.832-100.832 100.832s-100.832-45.174-100.832-100.832c0-37.246 20.36-69.372 50.416-86.874zM259.922 633.16c-27.818 0-50.416 22.526-50.416 50.416 0 27.816 22.598 50.416 50.416 50.416 27.89 0 50.416-22.6 50.416-50.416 0-27.89-22.526-50.416-50.416-50.416z" />
<glyph unicode="&#xe629;" d="M709.14 489.966c-22.756 88.014-102.016 153.322-197.14 153.322-95.102 0-174.382-65.306-197.166-153.322h-160.584v-102.216h160.584c22.784-88.040 102.066-153.32 197.166-153.32 95.124 0 174.384 65.282 197.14 153.32h160.61v102.216h-160.61zM512 336.648c-56.422 0-102.214 45.816-102.214 102.212 0 56.422 45.792 102.214 102.214 102.214 56.396 0 102.214-45.792 102.214-102.214 0-56.396-45.818-102.212-102.214-102.212z" />
<glyph unicode="&#xe62a;" d="M436.224 790.762c-19.62-4.13-58.348-18.072-85.2-31.5-40.796-19.62-56.284-30.98-93.462-68.158s-48.538-52.668-68.162-93.462c-52.67-107.924-52.67-211.198 0-320.15 19.622-41.308 30.462-56.284 68.162-93.456 37.694-37.698 52.152-48.028 93.462-68.164 63-29.948 93.462-37.18 160.074-37.18s97.078 7.23 160.074 37.18c40.794 19.62 55.254 30.466 93.462 68.164 37.698 38.206 48.54 52.664 68.162 93.456 24.784 52.156 32.016 76.426 37.692 128.062l3.616 32.016h-102.24l-6.712-39.762c-32.528-207.062-285.036-290.202-434.784-143.038-121.346 118.77-95.014 320.15 53.704 407.418 27.882 16.524 84.168 33.564 109.986 33.564h17.038v103.274l-19.108-0.518c-10.842 0-35.626-3.61-55.766-7.744zM454.81 651.346c-109.466-29.434-180.728-138.392-162.138-247.856 21.168-121.348 134.77-204.488 252.502-184.348 120.832 20.656 204.486 134.774 184.346 251.474-22.72 131.674-148.716 214.808-274.712 180.73z" />
<glyph unicode="&#xe62b;" d="M732.972 548.206c4.012 0.796 9.976 2.122 16.71 3.586h52.16l8.118 12.002c0.168 0.084 0.484 0.112 0.656 0.112l20.188 29.156c-0.29 0-0.77 0.058-0.984 0.058l2.11 3.16h-282.716l10.876-44.474h77.16l-129.834-117.19c-26.508 36.586-88.606 112.834-131.91 175.944h97.188v33.838l1.112 7.474c-0.3 0.056-0.84 0.142-1.112 0.142v3.046h-322.36v-44.5h95.594c37.114-29.014 179.018-206.212 184.914-223.892 2.364-16.542 4.528-114.23-2.42-121.604-13.952-14.764-77.588-10.85-92.934-11.93l-5.31-30.266c28.032-0.826 119.27 2.278 147.614 2.278 55.888 0 153.776 0.256 167.588-0.796l1.708 31.744c-14.122 2.392-91.168 0.286-101.816 2.706-2.364 15.39-4.954 118.216-2.59 128.852 10.646 30.69 172.552 155.77 190.29 160.554zM779.91 305.14l43.304-3.446 50.454 194.89c-8.43 0.286-84.992 7.518-94.926 9.454l1.168-200.898zM772.406 273.89l0.27-47.562 21.91-1.91 23.692-1.764 6.944 46.58-24.972 1.224z" />
<glyph unicode="&#xe62c;" d="M149.538 559.678v-60.41h120.82v-241.64h120.822v241.64h120.82v-241.64h362.464v120.82h-241.64v120.82h241.64v120.822h-241.64v-120.822h-120.822v120.822h-362.464v-60.412z" />
<glyph unicode="&#xe62d;" d="M723.908 795.348c12.616-5.158 25.23-16.628 31.25-27.808 3.726-7.168 22.934-88.87 99.762-422.56 10.32-44.434 18.634-87.436 18.634-95.748 0-18.062-6.020-30.962-20.354-43.86-11.466-10.606-17.774-12.902-75.684-26.662l-34.4-8.024 9.174 17.484c12.612 23.508 18.634 51.316 18.634 84.284 0 63.352-23.508 115.816-70.808 157.956-27.52 24.658-68.23 47.304-130.438 72.818-86.574 35.26-111.802 57.048-111.802 96.322 0.286 43.574 34.688 65.936 94.602 61.924 29.814-2.294 61.35-10.034 94.028-23.508 13.76-5.734 26.948-10.894 29.242-11.754 3.442-1.146 8.886 11.18 24.082 52.462 10.894 29.528 20.354 55.328 20.928 57.050 1.716 4.586-45.87 25.512-77.976 34.4-37.552 10.034-38.416 10.32-32.97 11.754 72.528 18.346 96.034 21.212 114.096 13.472zM319.986 699.024c-8.6-12.326-17.2-30.102-21.786-43.86-6.594-19.78-7.738-27.808-7.738-58.768 0-31.534 0.858-38.414 7.452-56.762 24.94-69.376 83.422-119.256 188.632-161.112 47.016-18.634 78.55-36.408 94.604-53.32 16.34-17.202 21.216-31.534 19.494-57.334-1.434-24.082-10.894-38.13-32.97-49.024-16.052-7.742-18.062-8.024-59.628-8.024-39.848 0-45.294 0.572-74.536 9.172-17.202 4.876-41.282 13.186-53.034 18.062-11.754 5.16-23.794 9.462-26.66 9.748-3.728 0.288-10.894-12.328-30.674-53.896-14.334-29.812-25.8-55.328-25.8-56.188 0-3.442 45.008-22.932 74.248-32.106 15.194-4.874 29.528-9.462 31.822-10.034 2.294-0.856-11.18-5.158-30.1-9.742-59.63-14.624-87.724-8.316-103.49 23.22-4.012 8.024-28.954 110.37-64.216 263.456-63.354 273.774-61.634 263.166-46.156 287.534 11.182 17.774 28.382 25.226 84.856 38.128 39.562 8.6 87.724 20.068 89.442 21.212 0.286 0.288-5.732-8.886-13.762-20.354z" />
<glyph unicode="&#xe62e;" d="M723.844 591.034c-5.822-5.094-6.004-7.458-3.456-37.112 1.456-17.466 0.18-22.378-5.822-22.378-9.096 0-29.652-14.736-32.202-23.286-1.818-5.64 2.548-18.558 7.278-21.65 2.184-1.456 8.734-3.092 14.374-3.638 7.64-0.728 10.734-2 12.188-4.73 2.184-4.366 0.544-31.836-3.274-54.212-2.548-14.008-2.548-17.102 0-30.564 1.636-8.366 2.912-18.374 2.912-22.376s0.726-8.73 1.818-10.552c0.91-1.818 2.182-10.552 2.548-19.466 1.092-22.558 3.82-31.106 12.736-38.748 11.462-10.006 14.188-10.734 36.202-10.918 11.278 0 22.376-0.18 24.924-0.18 18.374-0.184 41.842 3.456 43.116 6.73 0.544 1.274 6.366 6.916 12.916 12.554 16.918 14.374 21.466 21.466 23.284 38.206 1.456 12.006-2.182 32.198-6.73 38.024-1.82 2.364-5.096 8.186-7.098 12.734-2.548 6.184-4.548 8.366-7.456 8.366-2.002 0-5.096 1.64-6.73 3.64-3.094 3.636-3.274 3.636-9.28 0.364-3.456-1.818-7.278-4.912-8.188-6.912-1.090-1.818-3.452-5.64-5.092-8.37-1.818-2.548-3.274-6.914-3.274-9.462 0-2.544-1.456-8.552-3.456-13.278-1.82-4.73-3.82-11.826-4.552-15.462-1.634-8.914-5.274-12.374-13.458-12.374-9.824 0-11.28 1.64-11.1 12.008 0.548 36.020 0 50.394-2.73 59.488-4.91 17.102-0.726 54.214 6.552 58.762 1.274 0.908 15.644 1.456 31.654 1.638 26.742 0 29.834 0.364 33.476 3.64 3.456 3.094 3.818 4.912 2.908 11.824-0.544 4.548-1.818 13.644-2.73 20.194-0.726 6.73-2.182 13.098-2.91 14.188-0.91 1.638-8.186 2.002-28.016 1.274-14.554-0.548-28.38-1.456-30.564-2.184-5.456-1.454-10.914 8.55-8.002 15.1 1.090 2.364 2 7.458 2 11.462 0 3.818 0.908 7.64 1.818 8.186 2.73 1.638 2.184 12.554-0.91 16.556-1.456 1.818-2.73 4.912-2.73 6.55 0 4.548-3.274 5.822-19.102 7.458-38.388 3.82-38.206 3.82-43.844-1.092zM593.948 526.086c-2.548-0.728-7.644-1.456-11.278-1.638-8.552-0.182-43.844-12.736-46.938-16.738-0.544-0.544-2.548-1.636-4.548-2.362-4.37-1.274-30.382-25.652-34.384-32.202-2.728-4.366-4.366-12.736-8.37-41.658-1.092-7.458-2.728-16.010-3.638-18.922-4.548-13.644 0.364-51.12 8.004-59.126 2.366-2.544 5.274-6.548 6.368-8.732 2.182-4.184 2-4.184-12.37-4.184h-14.37l-0.184 21.648c0 12.008-0.908 23.834-2 26.38-1.092 3.092-1.092 9.644 0.364 19.648 2.548 19.466 2 41.476-1.274 49.662-1.454 3.456-2.728 8.916-2.728 12.19 0 12.37-11.642 35.476-18.19 36.202-1.456 0.182-3.456 0.544-4.548 0.728-0.912 0.364-3.274 0.546-4.914 0.726-1.638 0-6.73 3.456-11.278 7.278-11.462 9.824-18.012 11.824-32.384 9.278-18.738-3.274-29.834-7.094-35.11-11.824-2.546-2.548-6.186-4.548-7.822-4.548-4.186 0-5.64-1.274-13.826-11.278-3.822-4.912-8.188-8.73-9.644-8.73-4.002 0-7.822 4.73-7.822 9.642 0 2.366-1.82 5.822-3.822 7.824-3.456 3.092-7.096 3.456-28.742 3.64-13.646 0.182-28.016 0.908-32.020 1.638-16.192 2.728-23.832-7.096-21.648-27.836 0.544-6.73 2.002-14.19 2.91-16.554 1.456-4.186 2.002-4.366 15.646-3.274l14.19 1.092 2.364-5.458c2.366-5.458 2.186-9.642-1.454-25.284-2.366-10.37-2.366-43.482 0-55.488 5.274-26.562 5.456-30.746 2.182-33.11-1.638-1.456-8.37-2.364-15.464-2.364-11.098 0-12.552-0.364-15.282-4.548-3.274-5.094-7.822-24.014-8.004-33.11 0-4.914 1.092-6.186 8.188-9.644 7.642-3.64 17.1-4.184 41.844-2.002 8.368 0.726 26.016-0.726 28.016-2.366 3.094-2.364 39.842-1.82 46.572 0.726 7.822 2.912 11.824 8.552 11.824 16.192 0 4-0.908 7.822-1.818 8.37-1.092 0.544-1.82 6.186-1.82 12.552 0 14.188-2.364 17.646-13.28 18.738-7.46 0.908-8.55 1.634-8.55 5.092 0 2.366-1.092 4.73-2.182 5.096-1.82 0.726-1.82 1.452-0.182 2.548 4.002 2.91 4.548 11.824 2.364 37.84-2.182 23.65-2.182 26.562 0.546 30.746 1.82 2.544 3.094 7.824 3.094 11.64 0 4.186 1.092 8.188 2.728 9.46 1.454 1.274 2.728 3.274 2.728 4.548 0 6.914 26.562 7.822 39.114 1.274 3.094-1.456 6.73-3.274 8.186-4.004s2.91-3.456 3.274-6.002c0.364-2.548 1.82-5.642 3.274-6.73 2.912-2.548 3.64-26.014 0.91-33.288-2-5.096-2.728-35.66-1.092-45.848 1.638-10.37-3.094-14.554-16.918-14.554-15.646 0-16.192-2.364-9.642-38.020 2.912-15.826 3.64-16.374 22.014-14.734s11.824 1.64 61.854 0l40.932-1.456 4.184 5.822c3.274 4.548 4.004 7.636 3.64 15.278l-0.546 9.644 19.104-12.734c23.284-15.466 32.018-17.83 66.768-17.466 19.646 0.184 25.832 0.912 35.476 4.186 6.184 2.364 12.552 4.914 14.008 5.822 1.456 0.73 6.914 2.548 12.188 3.818 13.466 3.094 23.47 11.646 28.018 23.834 2 5.456 5.274 13.1 7.278 16.918 2 4.004 3.64 8.37 3.64 9.826 0 3.818-8.916 13.826-12.552 13.826-1.636 0-6.006 1.64-9.824 3.636-7.096 3.82-12.37 3.64-17.646-0.908-1.456-1.274-5.64-2.73-9.278-3.456-3.64-0.548-8.186-2.912-10.008-4.91-2-2.186-6.548-5.098-10.366-6.552-3.64-1.456-8.37-5.096-10.37-7.824-2.73-3.64-6.188-5.456-14.192-7.274-6.002-1.274-12.732-1.64-15.098-0.91-5.458 1.64-21.65 12.006-21.65 13.644 0 0.73-3.456 4.912-7.458 9.096-7.096 7.278-7.458 8.188-6.366 16.010 1.456 11.462 3.456 13.1 15.1 13.1 5.456 0 12.37 1.27 15.466 2.908 8.186 4.37 36.202 4.004 42.934-0.36 4-2.73 8.914-3.274 25.832-3.274 22.012-0.182 32.202 1.818 39.842 7.64 4.73 3.456 4.73 4.002 4.73 26.014 0 24.378-2.548 36.93-9.096 46.208-2.184 3.094-5.458 8.552-7.278 12.37-1.818 4.004-4.548 7.46-6.188 8.188-1.634 0.548-6.002 4.368-9.64 8.552-4.73 5.458-8.73 8.004-13.278 8.732-3.456 0.546-11.462 3.456-17.646 6.55-23.652 11.278-29.11 12.552-39.66 9.278zM605.228 479.15c6.184-4.186 26.926-27.472 26.926-30.382 0-4.004-4.73-6.368-17.466-9.098-16.736-3.636-40.752-3.636-45.482 0-1.818 1.456-4.73 2.73-6.366 2.73-2.912 0-5.274 3.456-5.274 7.276 0 0.91 2.726 4.548 6.002 8.004 3.094 3.456 8.006 9.278 10.736 12.552 9.096 11.28 21.646 14.918 30.926 8.916zM170.974 350.712c-7.094-3.274-14.554-11.278-18.010-19.648-11.098-26.562 14.188-54.576 42.204-46.936 30.2 8.004 34.93 51.848 7.276 65.312-9.276 4.366-23.104 4.91-31.474 1.272z" />
<glyph unicode="&#xe62f;" d="M441.212 795.526c-116.6-24.856-220.094-109.822-263.482-216.48-36.606-89.486-36.606-191.624 0-281.108 38.414-94.008 124.284-172.644 225.068-206.088 36.154-11.75 44.744-12.654 109.37-12.654s73.216 0.904 109.37 12.654c152.308 50.166 252.184 187.106 252.184 346.64 0 158.182-96.72 292.858-247.664 344.832-34.802 11.752-46.102 13.558-102.594 14.914-34.8 0.904-71.858-0.452-82.254-2.712zM552.844 558.71c62.366-109.372 81.802-163.152 73.216-201.568-13.558-57.848-64.178-94.908-122.026-89.034-28.474 3.164-59.204 20.336-76.38 42.028l-10.846 14.462h18.076c49.262 0.906 87.226 47.456 79.542 98.072-2.712 20.79-18.076 61.918-36.154 97.168l-10.394 20.338 23.048 39.322c12.654 21.69 24.404 38.414 26.212 37.058 1.81-0.904 18.078-27.118 35.706-57.846zM457.936 515.322c38.868-77.282 45.646-111.176 28.924-140.102-30.278-51.068-102.14-36.606-117.052 23.952-2.26 7.234-0.452 21.692 4.52 36.156 8.134 25.762 56.492 116.15 61.916 116.15 1.81 0 11.75-16.27 21.692-36.156z" />
<glyph unicode="&#xe630;" d="M509.544 797.698c-16.522-6.114-27.262-18.178-32.548-36.35-3.638-12.394-3.638-16.194 3.966-250.494 3.634-112.692 7.6-243.226 9.086-289.986 1.818-61.466 3.306-88.398 5.12-96.99 6.116-28.752 29.082-46.762 59.814-46.762 11.566 0 265.53 43.126 278.418 47.258 11.73 3.802 25.778 17.514 32.22 31.558 9.914 21.644 9.914 21.312 3.14 121.278-9.254 135.822-22.304 335.426-25.114 386.152-2.976 50.232-4.794 59.32-14.87 74.354-7.274 10.74-22.97 22.472-34.37 25.942-4.788 1.322-33.87 6.278-64.77 10.738-193.49 28.092-204.394 29.248-220.094 23.3zM682.712 663.034c85.59-6.608 95.832-7.602 102.114-10.74 10.41-5.452 19.332-14.376 24.288-24.288 4.298-8.758 4.462-10.576 8.262-76.338 2.148-37.014 6.61-110.21 9.75-162.922 5.452-88.4 5.78-96.164 3.47-104.26-4.63-15.366-19.66-28.754-38.168-33.712-11.566-2.976-200.926-21.976-211.664-21.148-19.336 1.486-34.698 13.88-41.144 33.376-2.148 6.116-3.14 18.672-4.298 49.568-0.824 22.802-3.802 103.936-6.61 180.438-4.626 128.218-4.956 139.788-2.476 147.884 3.304 11.4 11.070 20.654 21.48 25.444 11.73 5.452 22.304 5.288 134.996-3.304zM556.472 660.058c-13.552-3.634-22.636-17.35-22.636-33.874 0-7.93-2.148-7.436 34.696-10.574 23.302-1.982 32.72-5.618 41.476-16.356 9.254-11.072 9.418-13.056 15.366-149.536 5.946-138.468 6.114-135.16-2.976-147.060-2.476-3.14-8.922-7.766-14.87-10.74-9.086-4.462-13.712-5.452-35.856-7.766-14.044-1.322-25.778-2.808-26.106-3.14-1.32-1.156 3.802-18.508 7.598-25.116 2.152-3.798 6.778-8.922 10.082-11.070 10.738-7.104 18.344-7.436 61.302-2.972 21.48 2.146 39.492 4.626 39.988 5.12 0.66 0.66-3.14 93.024-8.262 205.22l-9.254 204.064-34.698 2.808c-40.152 3.14-47.258 3.306-55.848 0.99zM360.504 728.796c-12.392-3.306-19.498-8.096-25.116-17.020-10.080-15.862-9.748 7.764-4.792-262.060 4.462-244.216 4.958-258.592 9.914-269.828 7.104-16.52 21.976-26.27 44.612-29.244 6.774-0.828 95.176 9.418 96.992 11.4 0.662 0.662-2.642 112.194-3.468 112.856-0.166 0.33-15.202-0.992-33.38-2.812-34.038-3.47-42.794-3.14-53.204 2.316-9.418 4.956-17.186 16.192-19.992 29.244-0.826 3.966-2.81 72.040-4.462 151.354-3.306 162.424-3.8 153.004 9.252 164.736 10.244 9.252 15.862 10.078 52.048 7.766 17.35-1.156 33.214-2.478 35.358-2.976l3.802-0.99-0.992 36.186c-0.498 19.994-1.488 42.134-1.982 49.404l-0.828 13.384-44.116 4.462c-49.902 5.122-47.588 5.122-59.65 1.818zM236.91 647.336c-12.888-3.304-22.47-12.888-24.618-24.784-0.66-3.306-0.33-56.51 0.826-118.306 3.304-184.236 4.79-233.144 7.104-240.746 2.974-10.080 12.392-18.836 23.958-22.14 9.088-2.644 11.236-2.644 38.5 0 15.862 1.652 32.056 3.304 35.854 3.798l7.106 0.992-0.99 39.822c-0.662 21.808-1.322 39.984-1.488 40.152-0.166 0.33-10.74-0.332-23.63-1.324-28.916-2.312-36.516-1.32-44.448 5.616-11.070 9.752-10.574 6.278-13.222 121.286l-2.312 104.26 3.472 6.94c2.644 5.122 5.454 7.766 11.070 10.246 6.938 3.14 9.582 3.304 36.518 2.146l28.914-1.322-1.156 33.708c-0.496 18.34-1.488 33.872-1.818 34.366-0.992 0.826-35.030 3.966-61.134 5.784-7.27 0.498-15.532 0.166-18.508-0.496zM389.090 616.934c-11.234-5.288-16.522-18.012-14.704-35.856l1.156-11.070 18.342-0.826c21.976-0.99 30.072-4.13 37.012-14.87l4.626-6.938v-197.454l-4.956-5.288c-7.436-7.932-17.348-11.566-34.534-12.89l-15.036-0.988-0.496-9.088c-1.322-20.654 5.948-35.028 20.488-40.646 6.608-2.48 9.584-2.644 32.716-0.662 14.046 1.158 26.272 2.644 27.43 3.304 2.478 1.49 2.312 21.644-0.826 161.932-3.472 161.432-3.8 166.554-10.74 170.188-1.654 0.826-14.872 1.982-29.248 2.478-20.488 0.826-27.262 0.496-31.228-1.322zM161.068 549.682c-1.982-0.66-5.122-3.47-7.104-5.948-3.47-4.298-3.47-5.454-3.47-74.024 0-38.168 0.496-80.306 1.158-93.358 0.99-21.48 1.32-24.124 4.79-28.252 5.286-6.116 13.55-7.932 33.542-6.942l16.854 0.826-0.498 20.822-0.494 20.816-15.202 0.828c-24.29 1.322-22.636-3.14-23.296 63.782-0.496 62.622-0.662 61.962 11.402 65.1 3.8 1.156 10.574 1.322 15.696 0.66l8.924-0.99v36.35l-5.122 0.992c-7.436 1.488-33.046 0.99-37.176-0.66zM249.634 530.846v-17.514h5.122c6.774 0 16.026-4.462 18.342-8.924 2.974-5.12 4.13-103.438 1.322-109.882-2.148-5.284-10.41-10.076-17.186-10.076h-4.296v-14.706c0-8.096 0.496-17.020 0.992-19.828 0.992-4.956 1.32-5.124 10.408-5.124 10.574 0 19.002 3.634 23.796 10.246 3.304 4.294 3.304 5.784 1.322 89.226-1.818 73.198-2.478 85.592-4.794 90.382-4.462 9.090-10.41 12.394-23.464 13.054l-11.566 0.662v-17.514z" />
<glyph unicode="&#xe631;" d="M404.756 306.348h-4.032l-1.962-3.478-103.844-181.588h472.736l1.964 3.496 103.874 181.57h-11.944zM658.346 349.616l1.994-3.454h4.032l209.148 0.892-5.972 10.296-230.368 399.084-4.032-0.012-209.19-0.864 5.97-10.314zM494.228 550.754l-2.020 3.494-105.346 180.682-5.96-10.314-230.422-399.052 2.038-3.484 105.328-180.724 5.958 10.33 228.404 395.614z" />
<glyph unicode="&#xe632;" d="M874.574 716.956h-160.11l-113.116-113.124h160.11zM512.664 603.832l113.124 113.124h-160.066l-113.168-113.124zM761.732 273.988h-499.464v328.77l114.17 114.198h-160.114l-67.286-67.302v-488.894h725.924v443.072h-113.23z" />
<glyph unicode="&#xe633;" d="M674.944 633.406l146.864 146.864h-157.398l-152.416-152.404-152.4 152.404h-157.404l146.876-146.864h-199.16v-535.96h262.048l100.042 100.056 100.058-100.056h262.048v535.96h-199.158zM511.992 354.976l-146.158-146.21h-104.624v313.33h501.572v-313.332h-104.622l-146.168 146.212z" />
<glyph unicode="&#xe634;" d="M693.758 301.802h89.638v215.224l-100.99 100.988-63.384-63.384 74.736-74.738v-178.090zM783.632 256.864h-312.668l-74.736 74.738 31.692 31.692 61.73-61.728h127.002l-125.112 125.35 31.93 31.93 125.112-125.114v127.004l-61.49 61.494 31.458 31.456-155.39 156.096h-312.192l89.402-89.4v-0.238h185.424l65.514-65.514-95.788-95.786-65.514 65.512v50.85h-89.636v-87.982l155.15-155.15-63.148-63.148 100.988-100.99h439.67l-89.398 88.928z" />
<glyph unicode="&#xe635;" d="M542.614 766.018l-185.864-60.152 402.558-130.254v-256.876l-268.254-86.742-226.362 73.188v251.626l218.766-70.802 185.864 60.114-403.142 130.47-115.904-37.504v-417.15l340.778-110.238 382.67 123.8v423.362z" />
</font>
</defs>
</svg>
